Torentas "Simsonai / The Simpsonai (2016 S27E21-22) [HDRip 720p] Animacija,Komedija" :: PiratuSala.lt

Simsonai Originalus pavadinimas: The Simpsonai Žanras: Animacija,Komedija Metai: 2016 S27E21-22 Režisierius: James L. Brooks, Matt Groening, Sam Simon, John Swartzwelder, Dan Greaney Vaidina: Dan Castellaneta, Julie Kavner, Nancy Cartwright, Yeardley Smith, Harry Shearer, Hank Azaria, Pamela Hayden, Tress MacNeille, Karl Wiedergott Apie filmą: Animacinis serialas apie geltonąją šeimynėlę iš ...

Apie mus

Jaunas ir perspektyvus torentų tinklalapis turintis vienintelį tikslą, suburti didelę ir darnią žmonių bendruomenę, kurie nori ir su malonumu dalinasi savo turimais failais. Tad jei nerandi sau vietos, prisijunk prie mūsų bendruomenės ir padėk mums siekti tikslo kartu.

Išsižadėjimas

Nei vienas failas, kurį matote šioje svetainėje, nėra nei talpinamas, nei laikomas svetainės serveryje. Visos nuorodos yra paskelbtos puslapio vartotojų bei lankytojų tik mokslo bei švietimo tikslais ir jokiais kitais. Puslapio administracija ar kiti atsakingi asmenys neprisiima atsakomybės už svetainės vartotojų talpinamą informaciją, įskaitant nuorodas, pasisakymus, temas ir visa kita, kiekvienas vartotojas už savo veiksmus atsako pats. Plačiau...
 

Simsonai / The Simpsonai (2016 S27E21-22) [HDRip 720p] Animacija,Komedija

Parsisiųsti Siųstis galima tik prisijungus!
Aprašymas
torentai

Simsonai


Originalus pavadinimas: The Simpsonai
Žanras: Animacija,Komedija
Metai: 2016 S27E21-22

Režisierius: James L. Brooks, Matt Groening, Sam Simon, John Swartzwelder, Dan Greaney
Vaidina: Dan Castellaneta, Julie Kavner, Nancy Cartwright, Yeardley Smith, Harry Shearer, Hank Azaria, Pamela Hayden, Tress MacNeille, Karl Wiedergott

Apie filmą: Animacinis serialas apie geltonąją šeimynėlę iš Springfildo - Houmeris, Mardžė, Bartas, Liza ir Megė. Žurnalas Time yra pripažinęs Simpsonus geriausia XX amžiaus situacijų komedija, o britų žurnalas vyrams Nuts išrinko Houmerio posakį doh juokingiausia televizijos replika.
Angliškas:
The satiric adventures of a working-class family in the misfit city of Springfield.

IMDB ➨ N.A.

Įgarsinta: LT (Mėgėjiškas, vienbalsis)
Originali kalba: EN

Kokybė: HDRip 720p
Video: ID : 1 Format : AVC Format/Info : Advanced Video Codec Format profile : High@L4.1 Format settings, CABAC : Yes Format settings, ReFrames : 5 frames Codec ID : V_MPEG4/ISO/AVC Duration : 21mn 1s Bit rate : 1 887 Kbps Width : 1 280 pixels Height : 718 pixels Display aspect ratio : 16:9 Frame rate mode : Constant Frame rate : 23.976 fps Color space : YUV Chroma subsampling : 4:2:0 Bit depth : 8 bits Scan type : Progressive Bits/(Pixel*Frame) : 0.086 Stream size : 284 MiB (77%) Writing library : x264 core 148 r2692 64f4e24
Audio: ID : 2 Format : MPEG Audio Format version : Version 1 Format profile : Layer 3 Mode : Joint stereo Mode extension : MS Stereo Codec ID : A_MPEG/L3 Codec ID/Hint : MP3 Duration : 21mn 1s Bit rate mode : Constant Bit rate : 128 Kbps Channel(s) : 2 channels Sampling rate : 48.0 KHz Compression mode : Lossy Stream size : 19.2 MiB (5%) Default : Yes Forced : No Audio #2 ID : 3 Format : AC-3 Format/Info : Audio Coding 3 Mode extension : CM (complete main) Format settings, Endianness : Big Codec ID : A_AC3 Duration : 21mn 1s Bit rate mode : Constant Bit rate : 384 Kbps Channel(s) : 6 channels Channel positions : Front: L C R, Side: L R, LFE Sampling rate : 48.0 KHz Bit depth : 16 bits Compression mode : Lossy Stream size : 57.7 MiB (16%) Default : No Forced : No


Filmo pristatymas:

Youtube

Nuorodos į šį torentą
BBCode
HTML
Tiesioginė nuoroda
Dalintis

Dar nėra komentarų