Torentas "Kita durų pusė / The Other Side of the Door (2016) [WEB-DL 1080p] Siaubo" :: PiratuSala.lt

The Other Side of the Door Originalus pavadinimas: The Other Side of the Door Žanras: Siaubo Metai: 2016 Režisierius: Johannes Roberts Vaidina: Sarah Wayne Callies, Jeremy Sisto, Sofia Rosinsky, Javier Botet ... Apie filmą: After her young son is killed in a tragic accident, a woman learns of a ritual which will bring him back to say goodbye, but when she disobeys a sacred warning, she the :...

Apie mus

Jaunas ir perspektyvus torentų tinklalapis turintis vienintelį tikslą, suburti didelę ir darnią žmonių bendruomenę, kurie nori ir su malonumu dalinasi savo turimais failais. Tad jei nerandi sau vietos, prisijunk prie mūsų bendruomenės ir padėk mums siekti tikslo kartu.

Išsižadėjimas

Nei vienas failas, kurį matote šioje svetainėje, nėra nei talpinamas, nei laikomas svetainės serveryje. Visos nuorodos yra paskelbtos puslapio vartotojų bei lankytojų tik mokslo bei švietimo tikslais ir jokiais kitais. Puslapio administracija ar kiti atsakingi asmenys neprisiima atsakomybės už svetainės vartotojų talpinamą informaciją, įskaitant nuorodas, pasisakymus, temas ir visa kita, kiekvienas vartotojas už savo veiksmus atsako pats. Plačiau...
 

Kita durų pusė / The Other Side of the Door (2016) [WEB-DL 1080p] Siaubo Auksinis

Parsisiųsti Siųstis galima tik prisijungus!
Aprašymas
torentai

The Other Side of the Door


Originalus pavadinimas: The Other Side of the Door
Žanras: Siaubo
Metai: 2016

Režisierius: Johannes Roberts
Vaidina: Sarah Wayne Callies, Jeremy Sisto, Sofia Rosinsky, Javier Botet ...

Apie filmą: After her young son is killed in a tragic accident, a woman learns of a ritual which will bring him back to say goodbye, but when she disobeys a sacred warning, she upsets the balance between life and death.

IMDB

Originali kalba: EN
Kokybė: WEBDLRip 1080p
Video: ID : 1 Format : AVC Format/Info : Advanced Video Codec Format profile : High@L4.0 Format settings, CABAC : Yes Format settings, ReFrames : 5 frames Codec ID : V_MPEG4/ISO/AVC Duration : 1h 36mn Bit rate : 4 418 Kbps Width : 1 916 pixels Height : 800 pixels Display aspect ratio : 2.40:1 Frame rate mode : Constant Frame rate : 23.976 fps Color space : YUV Chroma subsampling : 4:2:0 Bit depth : 8 bits Scan type : Progressive Bits/(Pixel*Frame) : 0.120 Stream size : 2.96 GiB (94%) Language : English Default : Yes Forced : No Color primaries : BT.709 Transfer characteristics : BT.709 Matrix coefficients : BT.709
Audio: ID : 2 Format : AC-3 Format/Info : Audio Coding 3 Mode extension : CM (complete main) Format settings, Endianness : Big Codec ID : A_AC3 Duration : 1h 36mn Bit rate mode : Constant Bit rate : 192 Kbps Channel(s) : 2 channels Channel positions : Front: L R Sampling rate : 48.0 KHz Bit depth : 16 bits Compression mode : Lossy Stream size : 132 MiB (4%) Language : English Default : Yes Forced : No


Filmo pristatymas:

Youtube

torentai
torentai
torentai

Nuorodos į šį torentą
BBCode
HTML
Tiesioginė nuoroda
Dalintis

Dar nėra komentarų