Torentas "10-oji Kloverfyldo gatvė / 10 Cloverfield Lane (2016) [WEBDL] Drama, Siaubo, Mistinis" :: PiratuSala.lt

10-oji Kloverfyldo gatvė Originalus pavadinimas: 10 Cloverfield Lane Žanras: Drama, Siaubo, Mistinis Metai: 2016 Režisierius: Dan Trachtenberg Vaidina: John Goodman, Mary Elizabeth Winstead, John Gallagher Jr., Douglas M. Griffin ... Apie filmą: Lemtingoji diena Mišelei (aktorė Mary Elizabeth Winstead) buvo tokia pat kaip ir kitos – ji niekaip negalėjo įtarti, kad gyvenimas apsivers aukštyn ...

Apie mus

Jaunas ir perspektyvus torentų tinklalapis turintis vienintelį tikslą, suburti didelę ir darnią žmonių bendruomenę, kurie nori ir su malonumu dalinasi savo turimais failais. Tad jei nerandi sau vietos, prisijunk prie mūsų bendruomenės ir padėk mums siekti tikslo kartu.

Išsižadėjimas

Nei vienas failas, kurį matote šioje svetainėje, nėra nei talpinamas, nei laikomas svetainės serveryje. Visos nuorodos yra paskelbtos puslapio vartotojų bei lankytojų tik mokslo bei švietimo tikslais ir jokiais kitais. Puslapio administracija ar kiti atsakingi asmenys neprisiima atsakomybės už svetainės vartotojų talpinamą informaciją, įskaitant nuorodas, pasisakymus, temas ir visa kita, kiekvienas vartotojas už savo veiksmus atsako pats. Plačiau...
 

10-oji Kloverfyldo gatvė / 10 Cloverfield Lane (2016) [WEBDL] Drama, Siaubo, Mistinis

Parsisiųsti Siųstis galima tik prisijungus!
Aprašymas
torentai

10-oji Kloverfyldo gatvė


Originalus pavadinimas: 10 Cloverfield Lane
Žanras: Drama, Siaubo, Mistinis
Metai: 2016

Režisierius: Dan Trachtenberg
Vaidina: John Goodman, Mary Elizabeth Winstead, John Gallagher Jr., Douglas M. Griffin ...

Apie filmą: Lemtingoji diena Mišelei (aktorė Mary Elizabeth Winstead) buvo tokia pat kaip ir kitos – ji niekaip negalėjo įtarti, kad gyvenimas apsivers aukštyn kojom. Bet atsitiko būtent taip. Pakliuvusi į avariją, Mišelė prarado sąmonę ir atsigavo nepažįstamoje patalpoje. Sutvarstyta koja ir prirakinta antrankiais. Kur ji? Kiek laiko praėjo nuo avarijos? Kas ją laiko nelaisvėje?

Mišelės pagrobėjas prisistato Hauardo Stamblerio vardu (akt. John‘as Goodman‘as). Pasak jo, pasaulyje įvyko žmoniją sunaikinęs cheminis karas ir jo rūsys, kuriame gyvena dar vienas vaikinas, yra vienintelė saugi vieta. Tačiau mergina juo nepasitiki. Sustiprėjusi ji nusprendžia imtis veiksmų ir pabandyti išsilaisvinti. Bet ar Hauardas tikrai meluoja? Galbūt išties žemės paviršiuje Mišelės laukia protu nesuvokiamas siaubas?

IMDB

Įgarsinta: LT (Mėgėjiškas, daugiabalsis) + Cratecsas ir Sekretorė

Kokybė: WEBDL
Video: ID : 0 Format : MPEG-4 Visual Format profile : Advanced Simple@L5 Format settings, BVOP : 2 Format settings, QPel : No Format settings, GMC : No warppoints Format settings, Matrix : Default (H.263) Muxing mode : Packed bitstream Codec ID : XVID Codec ID/Hint : XviD Duration : 1h 43mn Bit rate : 1 709 Kbps Width : 720 pixels Height : 304 pixels Display aspect ratio : 2.35:1 Frame rate : 29.970 fps Color space : YUV Chroma subsampling : 4:2:0 Bit depth : 8 bits Scan type : Progressive Compression mode : Lossy Bits/(Pixel*Frame) : 0.261 Stream size : 1.24 GiB (90%) Writing library : XviD 66
Audio: ID : 1 Format : AC-3 Format/Info : Audio Coding 3 Mode extension : CM (complete main) Format settings, Endianness : Big Codec ID : 2000 Duration : 1h 43mn Bit rate mode : Constant Bit rate : 192 Kbps Channel(s) : 2 channels Channel positions : Front: L R Sampling rate : 48.0 KHz Bit depth : 16 bits Compression mode : Lossy Stream size : 142 MiB (10%) Alignment : Split accross interleaves Interleave, duration : 500 ms (14.99 video frames) Interleave, preload duration : 500 ms


Filmo pristatymas:

Youtube

torentai
torentai
torentai

Nuorodos į šį torentą
BBCode
HTML
Tiesioginė nuoroda
Dalintis



audriusaudis 0
KomentarasParašė 2016-05-13 21:19
Naujokas


Naudinga: -1

seniai tokio sudo nemaciau :weep:
 
Donciokas
KomentarasParašė 2016-05-14 12:44



Naudinga: 0

Verta siųstis?
 
(nežinomas)
KomentarasParašė 2016-05-15 18:56



Naudinga: 0

Donciokas Paskelbta:
Verta siųstis?


Tai aisku verta :w00t: