Torentas "Darbo vakarėlis / Darbo Balius / Корпоратив (2014) [WEBDL] Komedija" :: PiratuSala.lt

Darbo vakarėlis / Darbo Balius Originalus pavadinimas: Корпоратив Žanras: Komedija Metai: 2014 Režisierius: Oleg Assadulin Vaidina: Nikolajus Naumovas, Ksenija Sobčak, Vasia Oblomovas, Natalija Medvedeva, Liza Arzamasova, Vladimiras Tolokonikovas, Miroslava Karpovič, Andrejus Fedorcovas, Marina Fedunkiv, Michailas Baškatovas, Maksimas Vitorganas, Sergejus Belogolovcevas, Romanas Junusovas ir...

Apie mus

Jaunas ir perspektyvus torentų tinklalapis turintis vienintelį tikslą, suburti didelę ir darnią žmonių bendruomenę, kurie nori ir su malonumu dalinasi savo turimais failais. Tad jei nerandi sau vietos, prisijunk prie mūsų bendruomenės ir padėk mums siekti tikslo kartu.

Išsižadėjimas

Nei vienas failas, kurį matote šioje svetainėje, nėra nei talpinamas, nei laikomas svetainės serveryje. Visos nuorodos yra paskelbtos puslapio vartotojų bei lankytojų tik mokslo bei švietimo tikslais ir jokiais kitais. Puslapio administracija ar kiti atsakingi asmenys neprisiima atsakomybės už svetainės vartotojų talpinamą informaciją, įskaitant nuorodas, pasisakymus, temas ir visa kita, kiekvienas vartotojas už savo veiksmus atsako pats. Plačiau...
 

Darbo vakarėlis / Darbo Balius / Корпоратив (2014) [WEBDL] Komedija

Parsisiųsti Siųstis galima tik prisijungus!
Aprašymas
torentai

Darbo vakarėlis / Darbo Balius


Originalus pavadinimas: Корпоратив
Žanras: Komedija
Metai: 2014

Režisierius: Oleg Assadulin
Vaidina: Nikolajus Naumovas, Ksenija Sobčak, Vasia Oblomovas, Natalija Medvedeva, Liza Arzamasova, Vladimiras Tolokonikovas, Miroslava Karpovič, Andrejus Fedorcovas, Marina Fedunkiv, Michailas Baškatovas, Maksimas Vitorganas, Sergejus Belogolovcevas, Romanas Junusovas ir kt.

Apie filmą: Rusai gėrė, rusai gers, kol žemelė apsivers! Taip būtų galima perfrazuoti seną ir visiems gerai žinomą posakį.

Ir visai nesuklystume. Teisumo jausmas tik dar labiau sustiprės pažiūrėjus naująją O. Asadulino komediją.

Pagrindinis filmo herojus Igoris (N. Naumovas) – ramus, kiek nedrąsus ir geraširdis vaikinas, dirbantis vyriausiuoju vadybininku baldų salone. Kiekviena jo darbo diena prasideda panašiai (tą puikiai iliustruoja ekrane nuolat skambanti ir todėl greitai įsirėžianti į atmintį grupės Seti daina „Smile“).

Nepaisydamas ramios ir gana patogios rutinos, Igoris vis tiek svajoja apie paaukštinimą. Žodžiu, jis toks gerutis karjeristas. Ir štai puiki proga dar kartą prašyti geresnės darbo vietos: baldų salonui sukanka šešeri metai! Visi darbuotojai pakiliai nusiteikę ir pasiryžę kaip reikiant atšvęsti. Tik direktorius nelabai linkęs linksmintis su darbuotojais. Jis prigrasina Igoriui, kad darbo vietoje, ginkdie, nevyktų jokie pasisėdėjimai. Juk rytoj darbo diena! Vaikinas prižada užtikrinti tvarką. Tik bėda, kad bendradarbiai Igorio visai neketina klausyti, jie nori šventę švęsti! Kiek pasispyriojęs vadybininkas nusileidžia ir pats prisėda prie bendradarbių stalo.

Išlenkęs vieną, antrą ar trečią taurelę, Igoris susiruošia namo. Žinoma, niekas taip anksti skirstytis nenori.

Tad galiausiai visi prisižada dar valandėlę pasėdėti, tada viską sutvarkyti, užrakinti ir keliauti į namus.

Oi, dar pamiršome paminėti slaptą mūsų herojaus meilę. Kiekvieną rytą ir vakarą jis dūsauja prie šviestuvų salono laukdamas, kol pasirodys gražuolė darbuotoja. Tik užkalbinti jos vaikinas niekaip nesiryžta...

Tačiau tai niekis palyginti su tuo, kas Igorio laukia kitą rytą po darbo baliaus. Atėjęs į darbą kitą dieną, jis netenka žado. Visas baldų salonas nusiaubtas! Atrodo taip, lyg jame būtų praūžęs uraganas. Viskas išvartyta ir sulaužyta.

Igoris supranta, kokia grėsmė iškilusi jo karjerai. Jis privalo išsiaiškinti, kuris iš bendradarbių nusiaubė darbo vietą ir kaip visa tai nutiko. Tad vos sulaukęs, kol į darbą susirenka nelaimingi ir pagiringi kolegos, vaikinas spaudžia bendradarbius papasakoti, kas nutiko, kai jis vakar vakare paliko darbo vietą. Vienas po kito jie ima pasakoti bemaž neįtikėtinus naktinius nuotykius. O tie nuotykiai kartais primena anekdotus.

Garantuojame, kad jūsų laukia neįtikėtinos, linksmos, labai „alkoholinės“ ir ne tik istorijos. O atomazga bus tokia, kad privers išsižioti iš nuostabos: taip būna tik rusams!
Rusiškas:
Игорь — старший менеджер в мебельном салоне, мечтающий о повышении. На следующий день после корпоративной вечеринки он обнаруживает, что салон полностью разгромлен. Сотрудники утверждают, что когда они уходили, всё было в порядке. Игоря это не устраивает, ведь теперь на кону его карьера. Пытаясь выяснить, что же произошло, Игорь узнаёт шокирующие подробности о ночных приключениях своих коллег…
Angliškas:
Igor - senior manager in a furniture showroom, dreaming of a pinch,the next day after a corporate party discovers the interior is completely destroyed.


Įgarsinta: LT (Prof., vienbalsis)

Kokybė: WEBDL
Video: ID : 0 Format : MPEG-4 Visual Format profile : Advanced Simple@L5 Format settings, BVOP : 1 Format settings, QPel : No Format settings, GMC : No warppoints Format settings, Matrix : Custom Codec ID : XVID Codec ID/Hint : XviD Duration : 1h 25mn Bit rate : 2 066 Kbps Width : 720 pixels Height : 400 pixels Display aspect ratio : 16:9 Frame rate : 25.000 fps Color space : YUV Chroma subsampling : 4:2:0 Bit depth : 8 bits Scan type : Progressive Compression mode : Lossy Bits/(Pixel*Frame) : 0.287 Stream size : 1.23 GiB (91%) Writing library : XviD 73
Audio: ID : 1 Format : AC-3 Format/Info : Audio Coding 3 Mode extension : CM (complete main) Format settings, Endianness : Big Codec ID : 2000 Duration : 1h 25mn Bit rate mode : Constant Bit rate : 192 Kbps Channel(s) : 2 channels Channel positions : Front: L R Sampling rate : 48.0 KHz Bit depth : 16 bits Compression mode : Lossy Stream size : 117 MiB (8%) Alignment : Split accross interleaves Interleave, duration : 500 ms (12.50 video frames) Interleave, preload duration : 500 ms


Filmo pristatymas:

Youtube

torentai
torentai
torentai

Nuorodos į šį torentą
BBCode
HTML
Tiesioginė nuoroda
Dalintis



Deividas0712
KomentarasParašė 2016-05-18 00:22



Naudinga: 0

Gerule komedija :lol: :lol: