Torentas "Ilgas savaitgalis. Gamtos kerštas / Long Weekend (2008) [BRRip] Drama, Siaubo, Trileris" :: PiratuSala.lt

Ilgas savaitgalis. Gamtos kerštas Originalus pavadinimas: Long Weekend Žanras: Drama, Siaubo, Trileris Metai: 2008 Režisierius: Jamie Blanks Vaidina: Jim Caviezel, Claudia Karvan, Star, John Brumpton ... Apie filmą: Lietuviškas: Atostogaujanti pora susidurs su tuo, kas nutinka, kai stokojama pagarbos gamtai. Angliškas: A vacationing couple in the wilderness learns what happens when they LT :...

Apie mus

Jaunas ir perspektyvus torentų tinklalapis turintis vienintelį tikslą, suburti didelę ir darnią žmonių bendruomenę, kurie nori ir su malonumu dalinasi savo turimais failais. Tad jei nerandi sau vietos, prisijunk prie mūsų bendruomenės ir padėk mums siekti tikslo kartu.

Išsižadėjimas

Nei vienas failas, kurį matote šioje svetainėje, nėra nei talpinamas, nei laikomas svetainės serveryje. Visos nuorodos yra paskelbtos puslapio vartotojų bei lankytojų tik mokslo bei švietimo tikslais ir jokiais kitais. Puslapio administracija ar kiti atsakingi asmenys neprisiima atsakomybės už svetainės vartotojų talpinamą informaciją, įskaitant nuorodas, pasisakymus, temas ir visa kita, kiekvienas vartotojas už savo veiksmus atsako pats. Plačiau...
 

Ilgas savaitgalis. Gamtos kerštas / Long Weekend (2008) [BRRip] Drama, Siaubo, Trileris

Parsisiųsti Siųstis galima tik prisijungus!
Aprašymas
torentai

Ilgas savaitgalis. Gamtos kerštas


Originalus pavadinimas: Long Weekend
Žanras: Drama, Siaubo, Trileris
Metai: 2008

Režisierius: Jamie Blanks
Vaidina: Jim Caviezel, Claudia Karvan, Star, John Brumpton ...

Apie filmą: Lietuviškas:
Atostogaujanti pora susidurs su tuo, kas nutinka, kai stokojama pagarbos gamtai.
Angliškas:
A vacationing couple in the wilderness learns what happens when they disrespect nature.

IMDB

Įgarsinta: LT (Prof., vienbalsis)

Kokybė: BRRip
Video: : AVC Format/Info : Advanced Video Codec Format profile : Main@L4.0 Format settings, CABAC : Yes Format settings, ReFrames : 4 frames Codec ID : V_MPEG4/ISO/AVC Duration : 1h 27mn Bit rate : 2 500 Kbps Width : 1 382 pixels Height : 576 pixels Display aspect ratio : 2.40:1 Original display aspect ratio : 2.40:1 Frame rate mode : Constant
Audio: Audio #1 ID : 2 Format : AC-3 Format/Info : Audio Coding 3 Mode extension : CM (complete main) Format settings, Endianness : Big Codec ID : A_AC3 Duration : 1h 27mn Bit rate mode : Constant Bit rate : 448 Kbps Channel(s) : 2 channels Channel positions : Front: L R Sampling rate : 48.0 KHz Bit depth : 16 bits Compression mode : Lossy Stream size : 281 MiB (13%) Language : Lithuanian Default : Yes Forced : Yes Audio #2 ID : 3 Format : AC-3 Format/Info : Audio Coding 3 Format profile : Dolby Digital Mode extension : CM (complete main) Format settings, Endianness : Big Codec ID : A_AC3 Duration : 1h 27mn Bit rate mode : Constant Bit rate : 448 Kbps Channel(s) : 2 channels Channel positions : Front: L R Sampling rate : 48.0 KHz Bit depth : 16 bits Compression mode : Lossy Stream size : 281 MiB (13%) Language : English Default : No Forced : No


Filmo pristatymas:

Youtube

torentai
torentai
torentai

Nuorodos į šį torentą
BBCode
HTML
Tiesioginė nuoroda
Dalintis

Dar nėra komentarų