Torentas "Klausyk širdies / The Choice (2016) [BDRip 1080p] Drama, Romantinis" :: PiratuSala.lt

Klausyk širdie Originalus pavadinimas: The Choice Žanras: Drama, Romantinis Metai: 2016 Režisierius: Ross Katz Vaidina: Benjamin Walker, Teresa Palmer, Maggie Grace, Alexandra Daddario ... Apie filmą: Pasaulį sujaudinusi filmo „Žinutė butelyje“ meilės istorija atkreipė Holivudo dėmesį į jauną rašytoją Nicholą Sparksą. Po penkerių metų pagal kitą jo romaną pastatyta juosta „Užrašų knygutė“ ir...

Apie mus

Jaunas ir perspektyvus torentų tinklalapis turintis vienintelį tikslą, suburti didelę ir darnią žmonių bendruomenę, kurie nori ir su malonumu dalinasi savo turimais failais. Tad jei nerandi sau vietos, prisijunk prie mūsų bendruomenės ir padėk mums siekti tikslo kartu.

Išsižadėjimas

Nei vienas failas, kurį matote šioje svetainėje, nėra nei talpinamas, nei laikomas svetainės serveryje. Visos nuorodos yra paskelbtos puslapio vartotojų bei lankytojų tik mokslo bei švietimo tikslais ir jokiais kitais. Puslapio administracija ar kiti atsakingi asmenys neprisiima atsakomybės už svetainės vartotojų talpinamą informaciją, įskaitant nuorodas, pasisakymus, temas ir visa kita, kiekvienas vartotojas už savo veiksmus atsako pats. Plačiau...
 

Klausyk širdies / The Choice (2016) [BDRip 1080p] Drama, Romantinis Auksinis

Parsisiųsti Siųstis galima tik prisijungus!
Aprašymas
torentai

Klausyk širdie


Originalus pavadinimas: The Choice
Žanras: Drama, Romantinis
Metai: 2016

Režisierius: Ross Katz
Vaidina: Benjamin Walker, Teresa Palmer, Maggie Grace, Alexandra Daddario ...

Apie filmą: Pasaulį sujaudinusi filmo „Žinutė butelyje“ meilės istorija atkreipė Holivudo dėmesį į jauną rašytoją Nicholą Sparksą. Po penkerių metų pagal kitą jo romaną pastatyta juosta „Užrašų knygutė“ įtvirtino rašytojo, kaip neprilygstamo meilės istorijų pasakotojo, statusą. „Bragusis Džonai“ ir „Amžinai tavo“ romantiškiausios pastarojo meto jo knygų ekranizacijos, o dabar į kino ekranus atkeliauja dar viena visas kliūtis nugalinčios meilės istorija – „Klausyk širdies“.

Trevisas gyvena paprastą, ramų gyvenimą jaukiame paplūdimio miestelyje. Vyras dirba mėgstamą darbą, turi jaukius namus, mažą patikimų ir ištikimų draugų būrelį – iki pilnos laimės trūksta tik žmogaus, su kuriuo būtų galima visa tai dalintis. Tačiau moters, kuri užburtų Treviso širdį, jam sutikti dar nepavyko. Viskas pasikeičia, kuomet į kaimyninį namą gyventi atsikrausto žavi mergina Gabi. Iš pradžių bėgdamas nuo minties, kad jo širdį aplankė niekuomet nepatirtas jausmas, galų gale Trevisas pripažįsta sau, kad įsimylėjo. Gabi, kuri, kaip netrukus paaiškėja, yra susižadėjusi, taip pat neabejinga žaviam kaimynui. Situacijai komplikavusis, Gabi nutaria išvažiuoti iš miestelio, kad galėtų ramiai pagalvoti ir susivokti savo jausmuose. Deja, nutinka nelaimė – mergina pakliūva į avariją. Jai balansuojant tarp gyvenimo ir mirties, Trevisas susiduria su sunkiausiu gyvenimo pasirinkimu.

Angliškas:
When feisty medical student Gabby Holland moves in next door to perennial ladies’ man Travis Shaw, it sends them both on a romantic journey neither ever dreamed possible. Travis has always believed a serious relationship with a woman would cramp his easygoing lifestyle, while Gabby is all set to settle down her long-term boyfriend—until an irresistible attraction between the unlikely couple upends both of their well-planned lives. After a whirlwind courtship, Gabby and Travis wed and build a family together, making every decision hand-in-hand until one of them is forced to make the most important choice of their life alone. A poignant and life-affirming celebration of love, marriage and family that explores the most heart-wrenching question of all: how far would you go to keep the hope of love alive?

IMDB

Įgarsinta: LT (Mėgėjiškas, daugiabalsis) + Cratecsas ir Sekretorė

Kokybė: BDRip 1080p
Video: Video ID : 1 Format : AVC Format/Info : Advanced Video Codec Format profile : High@L4.1 Format settings, CABAC : Yes Format settings, ReFrames : 5 frames Codec ID : V_MPEG4/ISO/AVC Duration : 1h 51mn Bit rate : 8 727 Kbps Width : 1 920 pixels Height : 800 pixels Display aspect ratio : 2.40:1 Frame rate mode : Constant Frame rate : 23.976 fps Color space : YUV Chroma subsampling : 4:2:0 Bit depth : 8 bits Scan type : Progressive Bits/(Pixel*Frame) : 0.237 Stream size : 6.61 GiB (82%) Writing library : x264 core 148 r2665 a01e339
Audio: Audio #1 ID : 2 Format : AC-3 Format/Info : Audio Coding 3 Mode extension : CM (complete main) Format settings, Endianness : Big Codec ID : A_AC3 Duration : 1h 51mn Bit rate mode : Constant Bit rate : 192 Kbps Channel(s) : 2 channels Channel positions : Front: L R Sampling rate : 48.0 KHz Bit depth : 16 bits Compression mode : Lossy Stream size : 153 MiB (2%) Language : Lithuanian Default : Yes Forced : No Audio #2 ID : 3 Format : DTS Format/Info : Digital Theater Systems Mode : 16 Format settings, Endianness : Big Codec ID : A_DTS Duration : 1h 51mn Bit rate mode : Constant Bit rate : 1 509 Kbps Channel(s) : 6 channels Channel positions : Front: L C R, Side: L R, LFE Sampling rate : 48.0 KHz Bit depth : 24 bits Compression mode : Lossy Stream size : 1.17 GiB (14%) Language : English Default : No Forced : No Menu 00:00:00.000 : en:00:00:00.000 00:04:37.277 : en:00:04:37.277 00:12:09.520 : en:00:12:09.520 00:20:26.976 : en:00:20:26.976 00:27:49.042 : en:00:27:49.042 00:34:24.396 : en:00:34:24.396 00:40:54.077 : en:00:40:54.077 00:47:25.050 : en:00:47:25.050 00:54:27.639 : en:00:54:27.639 00:58:57.993 : en:00:58:57.993 01:06:32.238 : en:01:06:32.238 01:14:04.106 : en:01:14:04.106 01:20:10.013 : en:01:20:10.013 01:28:19.044 : en:01:28:19.044 01:35:19.547 : en:01:35:19.547 01:40:33.069 : en:01:40:33.069


Filmo pristatymas:

Youtube

torentai
torentai
torentai

Panašūs torentai

Nuorodos į šį torentą
BBCode
HTML
Tiesioginė nuoroda
Dalintis

Dar nėra komentarų