Torentas "Klausyk širdies / The Choice (2016) [BRRip] Drama, Romantinis" :: PiratuSala.lt

Klausyk širdies Originalus pavadinimas: The Choice Žanras: Drama, Romantinis Metai: 2016 Režisierius: Ross Katz Vaidina: Benjamin Walker, Teresa Palmer, Maggie Grace, Alexandra Daddario ... Apie filmą: Lietuviškas Pasaulį sujaudinusi filmo „Žinutė butelyje“ meilės istorija atkreipė Holivudo dėmesį į jauną rašytoją Nicholą Sparksą. Po penkerių metų pagal kitą jo romaną pastatyta juosta kaip o...

Apie mus

Jaunas ir perspektyvus torentų tinklalapis turintis vienintelį tikslą, suburti didelę ir darnią žmonių bendruomenę, kurie nori ir su malonumu dalinasi savo turimais failais. Tad jei nerandi sau vietos, prisijunk prie mūsų bendruomenės ir padėk mums siekti tikslo kartu.

Išsižadėjimas

Nei vienas failas, kurį matote šioje svetainėje, nėra nei talpinamas, nei laikomas svetainės serveryje. Visos nuorodos yra paskelbtos puslapio vartotojų bei lankytojų tik mokslo bei švietimo tikslais ir jokiais kitais. Puslapio administracija ar kiti atsakingi asmenys neprisiima atsakomybės už svetainės vartotojų talpinamą informaciją, įskaitant nuorodas, pasisakymus, temas ir visa kita, kiekvienas vartotojas už savo veiksmus atsako pats. Plačiau...
 

Klausyk širdies / The Choice (2016) [BRRip] Drama, Romantinis

Parsisiųsti Siųstis galima tik prisijungus!
Aprašymas
torentai

Klausyk širdies


Originalus pavadinimas: The Choice
Žanras: Drama, Romantinis
Metai: 2016

Režisierius: Ross Katz
Vaidina: Benjamin Walker, Teresa Palmer, Maggie Grace, Alexandra Daddario ...

Apie filmą:
Lietuviškas
Pasaulį sujaudinusi filmo „Žinutė butelyje“ meilės istorija atkreipė Holivudo dėmesį į jauną rašytoją Nicholą Sparksą. Po penkerių metų pagal kitą jo romaną pastatyta juosta „Užrašų knygutė“ įtvirtino rašytojo, kaip neprilygstamo meilės istorijų pasakotojo, statusą. „Bragusis Džonai“ ir „Amžinai tavo“ romantiškiausios pastarojo meto jo knygų ekranizacijos, o dabar į kino ekranus atkeliauja dar viena visas kliūtis nugalinčios meilės istorija – „Klausyk širdies“.

Trevisas gyvena paprastą, ramų gyvenimą jaukiame paplūdimio miestelyje. Vyras dirba mėgstamą darbą, turi jaukius namus, mažą patikimų ir ištikimų draugų būrelį – iki pilnos laimės trūksta tik žmogaus, su kuriuo būtų galima visa tai dalintis. Tačiau moters, kuri užburtų Treviso širdį, jam sutikti dar nepavyko. Viskas pasikeičia, kuomet į kaimyninį namą gyventi atsikrausto žavi mergina Gabi. Iš pradžių bėgdamas nuo minties, kad jo širdį aplankė niekuomet nepatirtas jausmas, galų gale Trevisas pripažįsta sau, kad įsimylėjo. Gabi, kuri, kaip netrukus paaiškėja, yra susižadėjusi, taip pat neabejinga žaviam kaimynui. Situacijai komplikavusis, Gabi nutaria išvažiuoti iš miestelio, kad galėtų ramiai pagalvoti ir susivokti savo jausmuose. Deja, nutinka nelaimė – mergina pakliūva į avariją. Jai balansuojant tarp gyvenimo ir mirties, Trevisas susiduria su sunkiausiu gyvenimo pasirinkimu.

Angliškas
When feisty medical student Gabby Holland moves in next door to perennial ladies’ man Travis Shaw, it sends them both on a romantic journey neither ever dreamed possible. Travis has always believed a serious relationship with a woman would cramp his easygoing lifestyle, while Gabby is all set to settle down her long-term boyfriend—until an irresistible attraction between the unlikely couple upends both of their well-planned lives. After a whirlwind courtship, Gabby and Travis wed and build a family together, making every decision hand-in-hand until one of them is forced to make the most important choice of their life alone. A poignant and life-affirming celebration of love, marriage and family that explores the most heart-wrenching question of all: how far would you go to keep the hope of love alive?

IMDB

Įgarsinta: LT (Prof., daugiabalsis) + Cratecsas ir Sekretorė

Kokybė: BRRip
Video: ID : 0 Format : MPEG-4 Visual Format profile : Advanced Simple@L5 Format settings, BVOP : 2 Format settings, QPel : No Format settings, GMC : No warppoints Format settings, Matrix : Default (H.263) Muxing mode : Packed bitstream Codec ID : XVID Codec ID/Hint : XviD Duration : 1h 51mn Bit rate : 1 355 Kbps Width : 720 pixels Height : 304 pixels Display aspect ratio : 2.35:1 Frame rate : 23.976 fps Color space : YUV Chroma subsampling : 4:2:0 Bit depth : 8 bits Scan type : Progressive Compression mode : Lossy Bits/(Pixel*Frame) : 0.258 Stream size : 1.05 GiB (87%) Writing library : XviD 66
Audio: ID : 1 Format : AC-3 Format/Info : Audio Coding 3 Mode extension : CM (complete main) Format settings, Endianness : Big Codec ID : 2000 Duration : 1h 51mn Bit rate mode : Constant Bit rate : 192 Kbps Channel(s) : 2 channels Channel positions : Front: L R Sampling rate : 48.0 KHz Bit depth : 16 bits Compression mode : Lossy Stream size : 153 MiB (12%) Alignment : Split accross interleaves Interleave, duration : 500 ms (11.99 video frames) Interleave, preload duration : 500 ms


Filmo pristatymas:

Youtube

torentai
torentai
torentai

Panašūs torentai

Nuorodos į šį torentą
BBCode
HTML
Tiesioginė nuoroda
Dalintis



riemigis 5
KomentarasParašė 2016-05-23 05:43
Veteranas


Naudinga: 0

Nuo kada TRL įgarsina profesionaliai? 8-)