Torentas "Londono apgultis / London Has Fallen (2016) [BDRip-1080p] Veiksmo, Kriminalinis, Drama" :: PiratuSala.lt

Londono apgultis Originalus pavadinimas: London Has Fallen Žanras: Veiksmo, Kriminalinis, Drama Metai: 2016 Režisierius: Babak Najafi Vaidina: Alon Aboutboul, Waleed Zuaiter, Adel Bencherif, Mehdi Dehbi ... Apie filmą: Lietuviškas: Specialiųjų efektų ir katastrofų trileris „Londono apgultis“ („London has Fallen“) grėsmę pritraukia dar arčiau mūsų. Istorinės vietos, kuriose daugeliui teko ir ...

Apie mus

Jaunas ir perspektyvus torentų tinklalapis turintis vienintelį tikslą, suburti didelę ir darnią žmonių bendruomenę, kurie nori ir su malonumu dalinasi savo turimais failais. Tad jei nerandi sau vietos, prisijunk prie mūsų bendruomenės ir padėk mums siekti tikslo kartu.

Išsižadėjimas

Nei vienas failas, kurį matote šioje svetainėje, nėra nei talpinamas, nei laikomas svetainės serveryje. Visos nuorodos yra paskelbtos puslapio vartotojų bei lankytojų tik mokslo bei švietimo tikslais ir jokiais kitais. Puslapio administracija ar kiti atsakingi asmenys neprisiima atsakomybės už svetainės vartotojų talpinamą informaciją, įskaitant nuorodas, pasisakymus, temas ir visa kita, kiekvienas vartotojas už savo veiksmus atsako pats. Plačiau...
 

Londono apgultis / London Has Fallen (2016) [BDRip-1080p] Veiksmo, Kriminalinis, Drama Sidabrinis

Parsisiųsti Siųstis galima tik prisijungus!
Aprašymas
torentai

Londono apgultis


Originalus pavadinimas: London Has Fallen
Žanras: Veiksmo, Kriminalinis, Drama
Metai: 2016

Režisierius: Babak Najafi
Vaidina: Alon Aboutboul, Waleed Zuaiter, Adel Bencherif, Mehdi Dehbi ...

Apie filmą: Lietuviškas:
Specialiųjų efektų ir katastrofų trileris „Londono apgultis“ („London has Fallen“) grėsmę pritraukia dar arčiau mūsų. Istorinės vietos, kuriose daugeliui teko lankytis ir fotografuotis, filme patiria negailestingą sprogstamųjų užtaisų galią.

Svarbiausių pasaulio šalių lyderiai susirinko į Didžiosios Britanijos ministro pirmininko laidotuves. Nors tai labiausiai saugomas renginys pasaulyje, jo metu galinga antivakarietiškai nusiteikusi grupuotė rengiasi sudrebinti civilizacijos pamatus. Londone vienas po kito pasipila teroristiniai išpuoliai. Nuolaužomis virsta ne tik Britų parlamentas ir Big Benas, ugnies ir chaoso labirintu tampa visas miestas.

Kilus visuotinei panikai žūva penkių šalių lyderiai, o Jungtinių Valstijų prezidentas (aktorius Aaron Eckhart) paimamas įkaitu. Kol Specialiosios tarnybos visomis išgalėmis stengiasi atkurti pusiausvyrą nusiaubtame mieste, prezidento gelbėjimo operacijos imasi asmeninis jo sargybinis Maikas Baningas (Gerardas Butleris). Jo partnere tampa preciziška profesionalė, ypatingos paskirties agentė MI-6 (Charlotte Riley). Du nepaprastai skirtingi kovotojai ekstremaliomis sąlygomis privalo išmokti pasitikėti vienas kitu, nuo jų veiksmų dabar priklauso pasaulio stabilumas.

„Londono apgultis“ saugiai sėdintiems kino salėje žada aštrią ir šokiruojančią patirtį. Holivudo filmuose dažniausiai niokojami JAV laisvės simboliai – didelio populiarumo sulaukusioje „Olimpo apgultyje“ žlugo Baltieji rūmai. Dabar atėjo eilė Europai. Terorizmas kine dar niekada nebuvo taip arti ir toks tikras.
Rusiškas:
При загадочных обстоятельствах убит британский премьер-министр. На его похороны съезжаются лидеры крупнейших держав мира. Несмотря на запредельные меры безопасности, неизвестные террористы успешно взрывают приглашенных руководителей государств одного за другим вместе с половиной исторического центра Лондона. Однако, для президента США и его личного телохранителя все только начинается...
Angliškas:
In London for the Prime Minister's funeral, Mike Banning discovers a plot to assassinate all the attending world leaders.

IMDB

Įgarsinta: LT (Prof., vienbalsis)

Kokybė: BDRip-1080p
Video: Format : AVC Format/Info : Advanced Video Codec Format profile : High@L4.1 Format settings, CABAC : Yes Format settings, ReFrames : 5 frames Codec ID : V_MPEG4/ISO/AVC Duration : 1h 39mn Nominal bit rate : 11.5 Mbps Width : 1 920 pixels Height : 804 pixels Display aspect ratio : 2.40:1 Frame rate mode : Constant Frame rate : 23.976 fps Color space : YUV Chroma subsampling : 4:2:0
Audio: Audio #1 ID : 2 Format : AAC Format/Info : Advanced Audio Codec Format profile : LC Codec ID : A_AAC Duration : 1h 39mn Channel(s) : 6 channels Channel positions : Front: L C R, Side: L R, LFE Sampling rate : 48.0 KHz Compression mode : Lossy Delay relative to video : 9ms Language : Lithuanian Default : Yes Forced : No Audio #2 ID : 3 Format : AC-3 Format/Info : Audio Coding 3 Mode extension : CM (complete main) Format settings, Endianness : Big Codec ID : A_AC3 Duration : 1h 39mn Bit rate mode : Constant Bit rate : 384 Kbps Channel(s) : 6 channels Channel positions : Front: L C R, Side: L R, LFE Sampling rate : 48.0 KHz Bit depth : 16 bits Compression mode : Lossy Stream size : 273 MiB (3%) Language : Russian Default : No Forced : No Audio #3 ID : 4 Format : AC-3 Format/Info : Audio Coding 3 Mode extension : CM (complete main) Format settings, Endianness : Big Codec ID : A_AC3 Duration : 1h 39mn Bit rate mode : Constant Bit rate : 448 Kbps Channel(s) : 6 channels Channel positions : Front: L C R, Side: L R, LFE Sampling rate : 48.0 KHz Bit depth : 16 bits Compression mode : Lossy Stream size : 318 MiB (4%) Language : English Default : No Forced : No


Filmo pristatymas:

Youtube

torentai
torentai
torentai

Panašūs torentai

Nuorodos į šį torentą
BBCode
HTML
Tiesioginė nuoroda
Dalintis

Dar nėra komentarų