Torentas "Maikas ir Deivas ieško pamergių / Mike and Dave Need Wedding Dates (2016) [BDRip] Nuotykių, Komedija, Romantinis" :: PiratuSala.lt

Maikas ir Deivas ieško pamergių Originalus pavadinimas: Mike and Dave Need Wedding Dates Žanras: Nuotykių, Komedija, Romantinis Metai: 2016 Režisierius: Jake Szymanski Vaidina: Zac Efron, Adam Devine, Anna Kendrick, Aubrey Plaza ... Apie filmą: Lietuviškas: Šie du broliai manė, jog yra pasiutę, kol nesutiko „mielų“ merginų! Vakarėlių liūtai broliai Mailas (akt. Adam DeVine) ir Deivas (akt. į...

Apie mus

Jaunas ir perspektyvus torentų tinklalapis turintis vienintelį tikslą, suburti didelę ir darnią žmonių bendruomenę, kurie nori ir su malonumu dalinasi savo turimais failais. Tad jei nerandi sau vietos, prisijunk prie mūsų bendruomenės ir padėk mums siekti tikslo kartu.

Išsižadėjimas

Nei vienas failas, kurį matote šioje svetainėje, nėra nei talpinamas, nei laikomas svetainės serveryje. Visos nuorodos yra paskelbtos puslapio vartotojų bei lankytojų tik mokslo bei švietimo tikslais ir jokiais kitais. Puslapio administracija ar kiti atsakingi asmenys neprisiima atsakomybės už svetainės vartotojų talpinamą informaciją, įskaitant nuorodas, pasisakymus, temas ir visa kita, kiekvienas vartotojas už savo veiksmus atsako pats. Plačiau...
 

Maikas ir Deivas ieško pamergių / Mike and Dave Need Wedding Dates (2016) [BDRip] Nuotykių, Komedija, Romantinis

Parsisiųsti Siųstis galima tik prisijungus!
Aprašymas
torentai

Maikas ir Deivas ieško pamergių


Originalus pavadinimas: Mike and Dave Need Wedding Dates
Žanras: Nuotykių, Komedija, Romantinis
Metai: 2016

Režisierius: Jake Szymanski
Vaidina: Zac Efron, Adam Devine, Anna Kendrick, Aubrey Plaza ...

Apie filmą: Lietuviškas:
Šie du broliai manė, jog yra pasiutę, kol nesutiko „mielų“ merginų!

Vakarėlių liūtai broliai Mailas (akt. Adam DeVine) ir Deivas (akt. Zac Efron) nuolat sugadina gražiausias šeimos šventes. Jie be perstojo krečia šunybes ir į bėdas patenka ne tik patys, bet į jas įtraukia ir aplinkinius.

Artėjant sesers vestuvėms, jų tėtis, tikėdamasis sutramdyti nenuoramas brolius, įsako šiems susirasti padorias merginas, kurios atlydėtų juos į šventę Havajuose.

Intensyvios paieškos juos atveda net į televizijos pasimatymų šou. O štai ten brolių pasirodymą pastebi dvi nutrūktgalvės merginos Tatjana (akt. Aubrey Plaza) ir Alisa (akt. Anna Kendrick). Jos nei elegantiškos, nei išsilavinusios, nei padorios, tačiau galimybė nemokamai nuvykti į Havajus pasiutėlėms apsuka galvą...

Nuotaikingoje komedijoje žiūrovų laukia saulėti Havajai, vienerios vestuvės, šimtai nesusipratimų ir iki ašarų juokinga Zaco Efrono, Annos Kendrick, Adamo DeVine'o bei Aubrey Plazos vaidyba.
Rusiškas:
Братья-тусовщики Майк и Дэйв дают в интернете объявление о поиске пар, чтобы отправиться на свадьбу сестры на Гавайях. Они надеются на дикий отрыв, но выбранный ими дуэт девушек оказывается совершенно неконтролируемым, готовым превратить праздник в настоящий ад.
Angliškas:
Two hard-partying brothers place an online ad to find the perfect dates for their sister's Hawaiian wedding. Hoping for a wild getaway, the boys instead find themselves out-hustled by an uncontrollable duo.

IMDB

Įgarsinta: LT (Mėgėjiškas, vienbalsis)

Kokybė: BDRip
Video: Format : AVC Format/Info : Advanced Video Codec Format profile : High@L4.1 Format settings, CABAC : Yes Format settings, ReFrames : 12 frames Codec ID : V_MPEG4/ISO/AVC Duration : 1h 38mn Bit rate : 2 155 Kbps Width : 1 024 pixels Height : 428 pixels Display aspect ratio : 2.40:1 Frame rate mode : Constant Frame rate : 23.976 fps Color space : YUV Chroma subsampling : 4:2:0 Bit depth : 8 bits
Audio: Audio #1 ID : 2 Format : AC-3 Format/Info : Audio Coding 3 Mode extension : CM (complete main) Format settings, Endianness : Big Codec ID : A_AC3 Duration : 1h 38mn Bit rate mode : Constant Bit rate : 448 Kbps Channel(s) : 6 channels Channel positions : Front: L C R, Side: L R, LFE Sampling rate : 48.0 KHz Bit depth : 16 bits Compression mode : Lossy Stream size : 316 MiB (15%) Language : Lithuanian Default : Yes Forced : No Audio #2 ID : 3 Format : AC-3 Format/Info : Audio Coding 3 Mode extension : CM (complete main) Format settings, Endianness : Big Codec ID : A_AC3 Duration : 1h 38mn Bit rate mode : Constant Bit rate : 448 Kbps Channel(s) : 6 channels Channel positions : Front: L C R, Side: L R, LFE Sampling rate : 48.0 KHz Bit depth : 16 bits Compression mode : Lossy Stream size : 316 MiB (15%) Language : English Default : No Forced : No Text #1 ID : 4 Format : UTF-8 Codec ID : S_TEXT/UTF8 Codec ID/Info : UTF-8 Plain Text Language : Lithuanian Default : No Forced : No Text #2 ID : 5 Format : UTF-8 Codec ID : S_TEXT/UTF8 Codec ID/Info : UTF-8 Plain Text Title : Full Language : Russian Default : No Forced : No Text #3 ID : 6 Format : UTF-8 Codec ID : S_TEXT/UTF8 Codec ID/Info : UTF-8 Plain Text Title : Full Language : English Default : No Forced : No Text #4 ID : 7 Format : UTF-8 Codec ID : S_TEXT/UTF8 Codec ID/Info : UTF-8 Plain Text Title : SDH Language : English Default : No Forced : No


Filmo pristatymas:

Youtube

torentai
torentai
torentai

Panašūs torentai

Nuorodos į šį torentą
BBCode
HTML
Tiesioginė nuoroda
Dalintis

Dar nėra komentarų