Torentas "Paskutinis veiksmo filmo herojus / Last Action Hero (1993) [DVDRip] Veiksmo, Nuotykių, Komedija" :: PiratuSala.lt

Paskutinis veiksmo filmo herojus Originalus pavadinimas: Last Action Hero Žanras: Veiksmo, Nuotykių, Komedija Metai: 1993 Režisierius: John McTiernan Vaidina: Arnold Schwarzenegger, F. Murray Abraham, Art Carney, Charles Dance ... Apie filmą: Jaunasis Denis yra ypatingas veiksmo filmų fanas, o ypač vieno herojaus – Džeko Sleterio. Draugo pagalba jis patenka į dar tik filmuojamą filmą: jis ir...

Apie mus

Jaunas ir perspektyvus torentų tinklalapis turintis vienintelį tikslą, suburti didelę ir darnią žmonių bendruomenę, kurie nori ir su malonumu dalinasi savo turimais failais. Tad jei nerandi sau vietos, prisijunk prie mūsų bendruomenės ir padėk mums siekti tikslo kartu.

Išsižadėjimas

Nei vienas failas, kurį matote šioje svetainėje, nėra nei talpinamas, nei laikomas svetainės serveryje. Visos nuorodos yra paskelbtos puslapio vartotojų bei lankytojų tik mokslo bei švietimo tikslais ir jokiais kitais. Puslapio administracija ar kiti atsakingi asmenys neprisiima atsakomybės už svetainės vartotojų talpinamą informaciją, įskaitant nuorodas, pasisakymus, temas ir visa kita, kiekvienas vartotojas už savo veiksmus atsako pats. Plačiau...
 

Paskutinis veiksmo filmo herojus / Last Action Hero (1993) [DVDRip] Veiksmo, Nuotykių, Komedija

Parsisiųsti Siųstis galima tik prisijungus!
Aprašymas
torentai

Paskutinis veiksmo filmo herojus


Originalus pavadinimas: Last Action Hero
Žanras: Veiksmo, Nuotykių, Komedija
Metai: 1993

Režisierius: John McTiernan
Vaidina: Arnold Schwarzenegger, F. Murray Abraham, Art Carney, Charles Dance ...

Apie filmą: Jaunasis Denis yra ypatingas veiksmo filmų fanas, o ypač vieno herojaus – Džeko Sleterio. Draugo pagalba jis patenka į dar tik filmuojamą filmą: jis atsiduria Sleterio pasaulyje, kuriame geriečiai visada laimi. Sleterio priešas Benediktas, įvertinęs realaus ir kino pasaulio sąveiką, nutarią, kad lengviausia jam būstų susidoroti su Sleterį vaidinančiu aktoriumi (Arnoldu Schwarzeneggeriu), tuomet ir jo herojus Sleteris pranyktų iš kino scenarijų. Sleteris – filmo herojus, kartu su Deniu – realaus pasaulio atstovu, turi sustabdyti jau realiame pasaulyje veikiantį Benediktą.



IMDB

Įgarsinta: LT (Prof., vienbalsis)

Kokybė: DVDRip
Video: Format : MPEG-4 Visual Format profile : Advanced Simple@L5 Format settings, BVOP : 1 Format settings, QPel : No Format settings, GMC : No warppoints Format settings, Matrix : Custom Codec ID : XVID Codec ID/Hint : XviD Duration : 2h 10mn Bit rate : 1 600 Kbps Width : 720 pixels Height : 304 pixels Display aspect ratio : 2.35:1 Frame rate : 23.976 fps Color space : YUV Chroma subsampling : 4:2:0 Bit depth : 8 bits Scan type : Progressive Compression mode : Lossy Bits/(Pixel*Frame) : 0.305 Stream size : 1.46 GiB (67%) Writing library : XviD 1.2.1 (UTC 2008-12-04)
Audio: Audio #1 ID : 1 Format : AC-3 Format/Info : Audio Coding 3 Mode extension : CM (complete main) Format settings, Endianness : Big Codec ID : 2000 Duration : 2h 10mn Bit rate mode : Constant Bit rate : 384 Kbps Channel(s) : 6 channels Channel positions : Front: L C R, Side: L R, LFE Sampling rate : 48.0 KHz Bit depth : 16 bits Compression mode : Lossy Stream size : 360 MiB (16%) Alignment : Split accross interleaves Interleave, duration : 42 ms (1.00 video frame) Interleave, preload duration : 500 ms


Filmo pristatymas:

Youtube

torentai
torentai
torentai

Nuorodos į šį torentą
BBCode
HTML
Tiesioginė nuoroda
Dalintis

Dar nėra komentarų