Torentas "Aštuonkojis Dipas / Deep (2017) [WEBDLRip] Animation, Adventure, Comedy, Family" :: PiratuSala.lt

Aštuonkojis Dipas Originalus pavadinimas: Deep Žanras: Animation, Adventure, Comedy, Family Metai: 2017 Režisierius: Julio Soto Gurpide Vaidina: Justin Felbinger, Stephen Hughes, Lindsey Alena, Elisabeth Gray, Dwight Schultz, William Salyers, Bob Bergen, Jess Harnell, Phil LaMarr, Lewis Macleod Apie filmą: Linksmas ir smalsus aštuonkojis Dipas yra paskutinis savo giminės atstovas ateities To...

Apie mus

Jaunas ir perspektyvus torentų tinklalapis turintis vienintelį tikslą, suburti didelę ir darnią žmonių bendruomenę, kurie nori ir su malonumu dalinasi savo turimais failais. Tad jei nerandi sau vietos, prisijunk prie mūsų bendruomenės ir padėk mums siekti tikslo kartu.

Išsižadėjimas

Nei vienas failas, kurį matote šioje svetainėje, nėra nei talpinamas, nei laikomas svetainės serveryje. Visos nuorodos yra paskelbtos puslapio vartotojų bei lankytojų tik mokslo bei švietimo tikslais ir jokiais kitais. Puslapio administracija ar kiti atsakingi asmenys neprisiima atsakomybės už svetainės vartotojų talpinamą informaciją, įskaitant nuorodas, pasisakymus, temas ir visa kita, kiekvienas vartotojas už savo veiksmus atsako pats. Plačiau...
 

Aštuonkojis Dipas / Deep (2017) [WEBDLRip] Animation, Adventure, Comedy, Family

Parsisiųsti Siųstis galima tik prisijungus!
Aprašymas
DMCA


Aštuonkojis Dipas


Originalus pavadinimas: Deep
Žanras: Animation, Adventure, Comedy, Family
Metai: 2017

Režisierius: Julio Soto Gurpide
Vaidina: Justin Felbinger, Stephen Hughes, Lindsey Alena, Elisabeth Gray, Dwight Schultz, William Salyers, Bob Bergen, Jess Harnell, Phil LaMarr, Lewis Macleod

Apie filmą: Linksmas ir smalsus aštuonkojis Dipas yra paskutinis savo giminės atstovas ateities pasaulyje. Pasaulyje, kuriame bendras vandenyno lygis jau pakilęs tiek, kad apsėmęs daugelį žmonių statytų miestų. To Dipas, be abejo, nežino. Jis laimingai leidžia laiką su geriausiais draugais aštriadante žuvyte Eva ir neurotiška krevete Alisa, tyrinėdamas nepažįstamus objektus, nugrimzdusius į dugną iš keistos žmonių civilizacijos.

Nerūpestingas jų dienas nutraukia povandeninio ugnikalnio išsiveržimas, sugriaunantis bičiulių namus. Vienintelis pakankamai didelis gyvūnas, galintis nuversti akmenų krūvas ir išlaisvinti Dipo artimuosius, yra banginis Neitanas. Dipas su draugais nedvejodamas patraukia jo ieškoti. Neužmirštamoje kelionėje pro nuskendusį „Titaniką“ ir visiškai apsemtą Niujorką Dipo ir jo draugų laukia daugybė įvairiausių nuotykių.

IMDB

Įgarsinta: Lietuvių (Dubliuotas) / Garsas iš kino salės / Rusų / Anglų
Originali kalba: EN

Kokybė: WEBDLRip

Video: Format : AVC
Format/Info : Advanced Video Codec
Format profile : High@L4.1
Format settings, CABAC : Yes
Format settings, ReFrames : 10 frames
Codec ID : V_MPEG4/ISO/AVC
Duration : 1h 32mn
Bit rate : 1 943 Kbps
Width : 1 024 pixels
Height : 550 pixels
Display aspect ratio : 1.85:1
Frame rate mode : Constant
Frame rate : 23.976 (23976/1000) fps

Audio: Format : AC-3
Format/Info : Audio Coding 3
Mode extension : CM (complete main)
Format settings, Endianness : Big
Codec ID : A_AC3
Duration : 1h 32mn
Bit rate mode : Constant
Bit rate : 192 Kbps
Channel(s) : 2 channels
Channel positions : Front: L R
Sampling rate : 48.0 KHz
Frame rate : 31.250 fps (1536 spf)
Compression mode : Lossy
Stream size : 127 MiB (7%)
Language : Lithuanian

Audio: Format : AC-3
Format/Info : Audio Coding 3
Mode extension : CM (complete main)
Format settings, Endianness : Big
Codec ID : A_AC3
Duration : 1h 32mn
Bit rate mode : Constant
Bit rate : 384 Kbps
Channel(s) : 6 channels
Channel positions : Front: L C R, Side: L R, LFE
Sampling rate : 48.0 KHz
Frame rate : 31.250 fps (1536 spf)
Compression mode : Lossy
Stream size : 254 MiB (13%)
Title : iTunes
Language : Russian

Audio:Format : AC-3
Format/Info : Audio Coding 3
Mode extension : CM (complete main)
Format settings, Endianness : Big
Codec ID : A_AC3
Duration : 1h 32mn
Bit rate mode : Constant
Bit rate : 384 Kbps
Channel(s) : 6 channels
Channel positions : Front: L C R, Side: L R, LFE
Sampling rate : 48.0 KHz
Frame rate : 31.250 fps (1536 spf)
Compression mode : Lossy
Stream size : 254 MiB (13%)
Language : English

Filmo pristatymas:

Youtube




Nuorodos į šį torentą
BBCode
HTML
Tiesioginė nuoroda
Dalintis

Tagai
Nėra tagų

Dar nėra komentarų