Torentas "Didžiapėdžio vaikis / The Son of Bigfoot (2017) [WEB-DL 1080p] Animacinis, Komedija" :: PiratuSala.lt

Didžiapėdžio vaikis Originalus pavadinimas: The Son of Bigfoot Žanras: Animacinis, Komedija Metai: 2017 Režisierius: Jeremy Degruson, Ben Stassen Vaidina: Cinda Adams, Bob Barlen, Laila Berzins, Cal Brunker ... Apie filmą: „Alvino ir burundukų“ kūrėjai pristato linksmą, nuotykių ir staigmenų kupiną filmą visai šeimai, atskleidžiantį vieną didžiausių žmonijos paslapčių apie paslaptingąjį iš o...

Apie mus

Perspektyvus torentų tinklalapis turintis vienintelį tikslą, suburti didelę ir darnią žmonių bendruomenę, kurie nori ir su malonumu dalinasi savo turimais failais. Tad jei nerandi sau vietos, prisijunk prie mūsų bendruomenės ir padėk mums siekti tikslo kartu.

Išsižadėjimas

Nei vienas failas, kurį matote šioje svetainėje, nėra nei talpinamas, nei laikomas svetainės serveryje. Visos nuorodos yra paskelbtos puslapio vartotojų bei lankytojų tik mokslo bei švietimo tikslais ir jokiais kitais. Puslapio administracija ar kiti atsakingi asmenys neprisiima atsakomybės už svetainės vartotojų talpinamą informaciją, įskaitant nuorodas, pasisakymus, temas ir visa kita, kiekvienas vartotojas už savo veiksmus atsako pats. Plačiau...
 

Didžiapėdžio vaikis / The Son of Bigfoot (2017) [WEB-DL 1080p] Animacinis, Komedija

Parsisiųsti Siųstis galima tik prisijungus!
Aprašymas
DMCA


Didžiapėdžio vaikis


Originalus pavadinimas: The Son of Bigfoot
Žanras: Animacinis, Komedija
Metai: 2017

Režisierius: Jeremy Degruson, Ben Stassen
Vaidina: Cinda Adams, Bob Barlen, Laila Berzins, Cal Brunker ...

Apie filmą: „Alvino ir burundukų“ kūrėjai pristato linksmą, nuotykių ir staigmenų kupiną filmą visai šeimai, atskleidžiantį vieną didžiausių žmonijos paslapčių apie paslaptingąjį Didžiapėdį, kuris iš tiesų nėra jau toks paslaptingas.

Aplinkinių keistuoliu vadinamas Adamas ir pats jaučia, kad yra kitoks: nukirpti plaukai jam atauga pernakt, o naujus batus jis išauga vos per savaitę. Berniukas numano, kad tai susiję su kažkada iš namų išėjusiu jo tėčiu, todėl ryžtasi leistis į kelionę ir jį surasti. Galite tik įsivaizduoti Adamo nuostabą, kai paaiškėja, kad jo tėtis yra ne kas kitas, o legendinis Didžiapėdis! Maža to – berniukas sužino, kad ir pats yra apdovanotas ypatingomis galiomis. Deja, Adamo pėdsakais į mišką atseka ir klastingi, jau seniai Didžiapėdį sugauti norintys piktadariai. Adamas kartu su tėčiu stoja į kovą, kad apgintų savo naujuosius namus.

IMDB ➨ N.A.

Įgarsinta: Lietuvių (Dubliuotas) / [iš kino salės] / Anglų - {Orginalas)
Kokybė: WEB-DL 1080p

Cituoti:

Format : Matroska
Format version : Version 4 / Version 2
File size : 3.26 GiB
Duration : 1h 31mn
Overall bit rate : 5 087 Kbps
Movie name : piratusala.lt - pem
Encoded date : UTC 2017-12-10 13:59:56
Writing application : mkvmerge v18.0.0 ('Apricity') 64-bit
Writing library : libebml v1.3.5 + libmatroska v1.4.8

Video
ID : 1
Format : AVC
Format/Info : Advanced Video Codec
Format profile : [email protected]
Format settings, CABAC : Yes
Format settings, ReFrames : 5 frames
Codec ID : V_MPEG4/ISO/AVC
Duration : 1h 31mn
Bit rate : 4 509 Kbps
Width : 1 920 pixels
Height : 798 pixels
Display aspect ratio : 2.40:1
Frame rate mode : Constant
Frame rate : 23.976 (23976/1000) fps
Color space : YUV
Chroma subsampling : 4:2:0
Bit depth : 8 bits
Scan type : Progressive
Bits/(Pixel*Frame) : 0.123
Stream size : 2.89 GiB (89%)
Language : English
Default : Yes
Forced : No
Color range : Limited
Color primaries : BT.709
Transfer characteristics : BT.709
Matrix coefficients : BT.709

Audio #1
ID : 2
Format : AC-3
Format/Info : Audio Coding 3
Mode extension : CM (complete main)
Format settings, Endianness : Big
Codec ID : A_AC3
Duration : 1h 31mn
Bit rate mode : Constant
Bit rate : 192 Kbps
Channel(s) : 2 channels
Channel positions : Front: L R
Sampling rate : 48.0 KHz
Frame rate : 31.250 fps (1536 spf)
Compression mode : Lossy
Stream size : 126 MiB (4%)
Language : Lithuanian
Default : Yes
Forced : No

Audio #2
ID : 3
Format : AC-3
Format/Info : Audio Coding 3
Mode extension : CM (complete main)
Format settings, Endianness : Big
Codec ID : A_AC3
Duration : 1h 31mn
Bit rate mode : Constant
Bit rate : 384 Kbps
Channel(s) : 6 channels
Channel positions : Front: L C R, Side: L R, LFE
Sampling rate : 48.0 KHz
Frame rate : 31.250 fps (1536 spf)
Compression mode : Lossy
Stream size : 252 MiB (8%)
Language : English
Default : No
Forced : No


Filmo pristatymas:

Youtube




Panašūs torentai

Nuorodos į šį torentą
BBCode
HTML
Tiesioginė nuoroda
Dalintis

Tagai
Nėra tagų



alkoras
KomentarasParašė 2017-12-28 08:39



Naudinga: -1

Sūnui nepatiko :thumbsdown: :thumbsdown: :no: