Torentas "Simpsonai / Simpsons (2017) S29E09 [WEBDLRip 1080p] Animacinis, Komedija" :: PiratuSala.lt

Simpsonai Originalus pavadinimas: Simpsons Žanras: Animacinis, Komedija Metai: 2017 Režisierius: Mark Kirkland, Steven Dean Moore, Bob Anderson, Matthew Nastuk Vaidina: Dan Castellaneta, Julie Kavner, Nancy Cartwright, Yeardley Smith, Harry Shearer, Hank Azaria, Pamela Hayden, Tress MacNeille, Karl Wiedergott Apie filmą: Animacinis serialas apie geltonąją šeimynėlę iš Springfildo - Houmeris,...

Apie mus

Jaunas ir perspektyvus torentų tinklalapis turintis vienintelį tikslą, suburti didelę ir darnią žmonių bendruomenę, kurie nori ir su malonumu dalinasi savo turimais failais. Tad jei nerandi sau vietos, prisijunk prie mūsų bendruomenės ir padėk mums siekti tikslo kartu.

Išsižadėjimas

Nei vienas failas, kurį matote šioje svetainėje, nėra nei talpinamas, nei laikomas svetainės serveryje. Visos nuorodos yra paskelbtos puslapio vartotojų bei lankytojų tik mokslo bei švietimo tikslais ir jokiais kitais. Puslapio administracija ar kiti atsakingi asmenys neprisiima atsakomybės už svetainės vartotojų talpinamą informaciją, įskaitant nuorodas, pasisakymus, temas ir visa kita, kiekvienas vartotojas už savo veiksmus atsako pats. Plačiau...
 

Simpsonai / Simpsons (2017) S29E09 [WEBDLRip 1080p] Animacinis, Komedija

Parsisiųsti Siųstis galima tik prisijungus!
Aprašymas
DMCA


Simpsonai


Originalus pavadinimas: Simpsons
Žanras: Animacinis, Komedija
Metai: 2017

Režisierius: Mark Kirkland, Steven Dean Moore, Bob Anderson, Matthew Nastuk
Vaidina: Dan Castellaneta, Julie Kavner, Nancy Cartwright, Yeardley Smith, Harry Shearer, Hank Azaria, Pamela Hayden, Tress MacNeille, Karl Wiedergott

Apie filmą: Animacinis serialas apie geltonąją šeimynėlę iš Springfildo - Houmeris, Mardžė, Bartas, Liza ir Megė. Žurnalas Time yra pripažinęs Simpsonus geriausia XX amžiaus situacijų komedija, o britų žurnalas vyrams Nuts išrinko Houmerio posakį doh juokingiausia televizijos replika.

IMDB

Įgarsinta: LT (Mėgėjiškas, vienbalsis)
Originali kalba: EN

Kokybė: WEBDLRip 1080p
Video: Format : AVC Format/Info : Advanced Video Codec Format profile : High@L4 Format settings, CABAC : Yes Format settings, ReFrames : 4 frames Codec ID : V_MPEG4/ISO/AVC Duration : 21mn 38s Bit rate mode : Variable Bit rate : 3 658 Kbps Maximum bit rate : 15.0 Mbps Width : 1 920 pixels Height : 1 080 pixels Display aspect ratio : 16:9 Frame rate mode : Constant Frame rate : 23.976 (24000/1001) fps
Audio: Format : AC-3 Format/Info : Audio Coding 3 Mode extension : CM (complete main) Format settings, Endianness : Big Codec ID : A_AC3 Duration : 21mn 38s Bit rate mode : Constant Bit rate : 192 Kbps Channel(s) : 2 channels Channel positions : Front: L R Sampling rate : 48.0 KHz Frame rate : 31.250 fps (1536 spf) Compression mode : Lossy Stream size : 29.7 MiB (4%) Language : Lithuanian
Audio: Format : E-AC-3 Format/Info : Audio Coding 3 Format settings, Endianness : Big Codec ID : A_EAC3 Duration : 21mn 38s Bit rate mode : Constant Bit rate : 640 Kbps Channel(s) : 6 channels Channel positions : Front: L C R, Side: L R, LFE Sampling rate : 48.0 KHz Frame rate : 187.500 fps (256 spf) Compression mode : Lossy Stream size : 99.1 MiB (14%) Language : English


Filmo pristatymas:

Youtube




Panašūs torentai
Animacija LT Simpsonai / The Simpsons S28E10 (2017) [WEB-DL] Animacija, komedija. Nemokamas 349.74 MB 2 | 0
Animacija LT Simpsonai / The Simpsons S29E08 (2017) [WEBDLRip] Animation, Comedy 513.17 MB 1 | 0
Animacija LT Simpsonai / The Simpsons S29E07 (2017) [WEB-DL 1080p] Animation, Comedy 635.60 MB 2 | 0
Animacija LT Simpsonai / The Simpsons (2017) *S29E06* [WEB-DL] Animacija, Komedija 692.41 MB 1 | 0
Animacija LT Simpsonai / Simpsons S29E05 (2017) [WEB-DL 1080p] Animacija, Komedija 561.90 MB 4 | 0
Animacija LT Simpsonai / The Simpsons (2017) *S29E04* [WEB-DL] Animacija, Komedija 636.69 MB 5 | 0
Animacija LT Simpsonai / The Simpsons (2017) *S29E03* [WEB-DL] Animacija, Komedija 588.80 MB 4 | 0
Animacija LT Simpsonai / The Simpsons (2017) *S29E02* [WEB-DL] Animacija, Komedija 636.53 MB 2 | 0
Animacija LT Simpsonai / The Simpsons (2017) *S29E01* [WEB-DL] Animacija, Komedija 695.30 MB 3 | 0
Animacija LT Simpsonai / The Simpsons S28E16 (2016) [WEBDL] Animacija,komedija 917.27 MB 1 | 0
Animacija LT Simpsonai / The Simpsons *S27 Complete* (2016) [WEB-DL] Animacija, Komedija Nemokamas 7.52 GB 5 | 0
Animacija LT Simpsonai / The Simpsons *S27E14* (2016) [WEB-DL] Animacija, Komedija 349.74 MB 0 | 0
Animacija LT Simpsonai / The Simpsons *S27E08* (2016) [WEB-DL LT] Animacija, Komedija 349.96 MB 1 | 0
Animacija LT Simpsonai / The Simpsons S28E10 (2016) [HDRip] Animation, Comedy 970.50 MB 0 | 0
Animacija LT Simpsonai / The Simpsons *S27E07* (2016) [WEB-DL LT] Animacija, Komedija 349.91 MB 0 | 0
Animacija LT Simpsonai / The Simpsons * COMPLETE Season 26* (2014) [WEB-DL LT EN] Animacija, Komedija Nemokamas 7.52 GB 2 | 0
Animacija LT Simpsonai / The Simpsons * S27* (1989-....) [WEB-DL] Animacija, Komedija Nemokamas 6.04 GB 0 | 0
Animacija LT Simpsonai 25 Sezonas *S25* (2014) [HDTVRip] Veiksmo, Komedija, Animacija Nemokamas 14.51 GB 2 | 0
Animacija LT Simsonai / The Simpsonai (2016 S27E21-22) [HDRip 720p] Animacija,Komedija 773.27 MB 0 | 1
Animacija LT Simpsonai 25 sezonas / The Simpsons Season 25 (2013-2014) [HDTVRip] Animacinis / Komedija / Šeimai Nemokamas 8.21 GB 1 | 0
Animacija Simpsonai / The Simpsons (29x01 из 22) (2017) [WEBDLRip] Комедия, мультсериал, семейный 300.20 MB 0 | 0
Filmai HD Simpsonai / The Simpsons *S28E17* (2016) [WEB-DL 1080p] Animacija, Komedija 917.27 MB 0 | 0
Filmai HD Simpsonai / The Simpsons *S28E10-16* (2016) [WEB-DL 1080p] Animacija, Komedija Nemokamas 5.35 GB 0 | 0
Filmai HD Simpsonai / The Simpsons *S28E09* (2016) [WEB-DL 1080p LT] Animacija, Komedija 935.53 MB 0 | 0
Filmai HD Simpsonai / The Simpsons *S28E08* (2016) [WEB-DL 1080p LT] Animacija, Komedija 919.86 MB 0 | 0
Filmai HD Simpsonai / The Simpsons *S28E07* (2016) [WEB-DL 1080p LT] Animacija, Komedija 902.24 MB 0 | 0
Filmai HD Simpsonai / The Simpsons *S28E06* (2016) [WEB-DL 1080p LT] Animacija, Komedija 928.77 MB 0 | 0

Nuorodos į šį torentą
BBCode
HTML
Tiesioginė nuoroda
Dalintis

Tagai
Nėra tagų

Dar nėra komentarų