Torentas "Simpsonai / The Simpsons S28E10 (2016) [HDRip] Animation, Comedy" :: PiratuSala.lt

Simpsonai Originalus pavadinimas: The Simpsons Žanras: Animation, Comedy Metai: 2016 Režisierius: Mark Kirkland, Steven Dean Moore, Bob Anderson, Jim Reardon, Matthew Nastuk Vaidina: Dan Castellaneta, Julie Kavner, Nancy Cartwright, Yeardley Smith, Harry Shearer, Hank Azaria Apie filmą: The satiric adventures of a working-class family in the misfit city of Springfield. Įgarsinta: LT kalba: :...

Apie mus

Jaunas ir perspektyvus torentų tinklalapis turintis vienintelį tikslą, suburti didelę ir darnią žmonių bendruomenę, kurie nori ir su malonumu dalinasi savo turimais failais. Tad jei nerandi sau vietos, prisijunk prie mūsų bendruomenės ir padėk mums siekti tikslo kartu.

Išsižadėjimas

Nei vienas failas, kurį matote šioje svetainėje, nėra nei talpinamas, nei laikomas svetainės serveryje. Visos nuorodos yra paskelbtos puslapio vartotojų bei lankytojų tik mokslo bei švietimo tikslais ir jokiais kitais. Puslapio administracija ar kiti atsakingi asmenys neprisiima atsakomybės už svetainės vartotojų talpinamą informaciją, įskaitant nuorodas, pasisakymus, temas ir visa kita, kiekvienas vartotojas už savo veiksmus atsako pats. Plačiau...
 

Simpsonai / The Simpsons S28E10 (2016) [HDRip] Animation, Comedy

Parsisiųsti Siųstis galima tik prisijungus!
Aprašymas
DMCA
torentai

Simpsonai


Originalus pavadinimas: The Simpsons
Žanras: Animation, Comedy
Metai: 2016

Režisierius: Mark Kirkland, Steven Dean Moore, Bob Anderson, Jim Reardon, Matthew Nastuk
Vaidina: Dan Castellaneta, Julie Kavner, Nancy Cartwright, Yeardley Smith, Harry Shearer, Hank Azaria

Apie filmą: The satiric adventures of a working-class family in the misfit city of Springfield.

IMDB

Įgarsinta: LT (Mėgėjiškas, vienbalsis)
Originali kalba: EN

Kokybė: HDRip
Video: Format : AVC Format/Info : Advanced Video Codec Format profile : High@L4.0 Format settings, CABAC : Yes Format settings, ReFrames : 4 frames Codec ID : V_MPEG4/ISO/AVC Duration : 21mn 37s Bit rate : 5 013 Kbps Width : 1 916 pixels Height : 1 076 pixels Display aspect ratio : 16:9 Frame rate mode : Constant Frame rate : 23.976 fps Color space : YUV Chroma subsampling : 4:2:0 Bit depth : 8 bits Scan type : Progressive Bits/(Pixel*Frame) : 0.101 Stream size : 776 MiB (85%) Language : English Default : Yes Forced : No Color primaries : BT.709 Transfer characteristics : BT.709 Matrix coefficients : BT.709
Audio: Audio #1 ID : 2 Format : AC-3 Format/Info : Audio Coding 3 Mode extension : CM (complete main) Format settings, Endianness : Big Codec ID : A_AC3 Duration : 21mn 37s Bit rate mode : Constant Bit rate : 384 Kbps Channel(s) : 6 channels Channel positions : Front: L C R, Side: L R, LFE Sampling rate : 48.0 KHz Bit depth : 16 bits Compression mode : Lossy Stream size : 59.4 MiB (7%) Language : Lithuanian Default : Yes Forced : No Audio #2 ID : 3 Format : AC-3 Format/Info : Audio Coding 3 Mode extension : CM (complete main) Format settings, Endianness : Big Codec ID : A_AC3 Duration : 21mn 37s Bit rate mode : Constant Bit rate : 384 Kbps Channel(s) : 6 channels Channel positions : Front: L C R, Side: L R, LFE Sampling rate : 48.0 KHz Bit depth : 16 bits Compression mode : Lossy Stream size : 59.4 MiB (7%) Language : English Default : No Forced : No Text ID : 4 Format : UTF-8 Codec ID : S_TEXT/UTF8 Codec ID/Info : UTF-8 Plain Text Language : English Default : No Forced : No


Filmo pristatymas:

Youtube

torentai
torentai
torentai

Panašūs torentai
Animacija LT Simpsonai / The Simpsons *S27E08* (2016) [WEB-DL LT] Animacija, Komedija 349.96 MB 1 | 0
Animacija LT Simpsonai / The Simpsons *S27E07* (2016) [WEB-DL LT] Animacija, Komedija 349.91 MB 1 | 0
Animacija LT Simpsonai / The Simpsons *S27E06* (2016) [WEB-DL LT] Animacija, Komedija 349.79 MB 1 | 0
Animacija LT Simpsonai / The Simpsons *S27E05* (2016) [WEB-DL LT] Animacija, Komedija 349.75 MB 1 | 0
Animacija LT Simpsonai / The Simpsons *S28E09* (2016) [WEB-DL 1080p LT] Animacija, Komedija 935.53 MB 2 | 0
Animacija LT Simpsonai / The Simpsons *S28E08* (2016) [WEB-DL 1080p LT] Animacija, Komedija 919.86 MB 1 | 0
Animacija LT Simpsonai / The Simpsons *S28E07* (2016) [WEB-DL 1080p LT] Animacija, Komedija 902.24 MB 1 | 0
Animacija LT Simpsonai / The Simpsons *S28E06* (2016) [WEB-DL 1080p LT] Animacija, Komedija 928.77 MB 1 | 0
Animacija LT Simpsonai / The Simpsons *S27E02* (2016) [WEB-DL LT] Animacija, Komedija 349.67 MB 2 | 0
Animacija LT Simpsonai / The Simpsons *S27E01* (2016) [WEB-DL LT] Animacija, Komedija 349.79 MB 2 | 0
Animacija LT Simpsonai / The Simpsons *S28E05* (2016) [WEB-DL 1080p LT] Animacija, Komedija 919.49 MB 1 | 0
Animacija LT Simpsonai / The Simpsons *S28E04* (2016) [WEB-DL 1080p LT] Animacija, Komedija 947.60 MB 1 | 0
Animacija LT Simpsonai / The Simpsons *S28E03* (2016) [WEB-DL 1080p LT] Animacija, Komedija 928.35 MB 1 | 0
Animacija LT Simpsonai / The Simpsons *S28E02* (2016) [HDTV 1080p LT] Animacija, Komedija 912.53 MB 0 | 0
Animacija LT Simpsonai / The Simpsons * COMPLETE Season 26* (2014) [WEB-DL LT EN] Animacija, Komedija Nemokamas 7.52 GB 1 | 0
Animacija LT Simpsonai / The Simpsons *S28E01* (2016) [HDTV 1080p LT] Animacija, Komedija 903.95 MB 1 | 0
Animacija LT Simpsonai / The Simpsons * S26E01-08* (1989-....) [WEB-DL LT EN] Animacija, Komedija 2.73 GB 0 | 0
Animacija LT Simpsonai / The Simpsons * S27* (1989-....) [WEB-DL] Animacija, Komedija Nemokamas 6.04 GB 3 | 0
Animacija LT Simpsonai 25 Sezonas *S25* (2014) [HDTVRip] Veiksmo, Komedija, Animacija Nemokamas 14.51 GB 0 | 0
Animacija LT Simsonai / The Simpsonai (2016 S27E21-22) [HDRip 720p] Animacija,Komedija 773.27 MB 0 | 0
Animacija LT Simpsonai - Lady Gaga / The Simpsons - Lisa Goes Gaga (2014) [HDRip] Animacija 771.83 MB 0 | 0
Animacija LT Simpsonai 25 sezonas / The Simpsons Season 25 (2013-2014) [HDTVRip] Animacinis / Komedija / Šeimai Nemokamas 8.21 GB 1 | 0

Nuorodos į šį torentą
BBCode
HTML
Tiesioginė nuoroda
Dalintis

Dar nėra komentarų