Torentas "Kalnai kalnai (2016) [WEBRip 1080p] Dokumentinis" :: PiratuSala.lt

Kalnai kalnai Originalus pavadinimas: Kalnai kalnai Žanras: Dokumentinis Metai: 2016 Scenarijaus autoriai: Marija Stonytė Operatoriai: Gediminas Kairys Montažo režisieriai: Marija Stonytė Muzikos autoriai: Mindaugas Šmėga Garso režisieriai: Kazimieras Čėjauskas, Mindaugas Šmėga Prodiuseriai: Viktorija Astrauskaitė Režisierius: Marija Stonytė Vaidina: Laima Armaliene Apie filmą: Laima – iš į ...

Apie mus

Perspektyvus torentų tinklalapis turintis vienintelį tikslą, suburti didelę ir darnią žmonių bendruomenę, kurie nori ir su malonumu dalinasi savo turimais failais. Tad jei nerandi sau vietos, prisijunk prie mūsų bendruomenės ir padėk mums siekti tikslo kartu.

Išsižadėjimas

Nei vienas failas, kurį matote šioje svetainėje, nėra nei talpinamas, nei laikomas svetainės serveryje. Visos nuorodos yra paskelbtos puslapio vartotojų bei lankytojų tik mokslo bei švietimo tikslais ir jokiais kitais. Puslapio administracija ar kiti atsakingi asmenys neprisiima atsakomybės už svetainės vartotojų talpinamą informaciją, įskaitant nuorodas, pasisakymus, temas ir visa kita, kiekvienas vartotojas už savo veiksmus atsako pats. Plačiau...
 

Kalnai kalnai (2016) [WEBRip 1080p] Dokumentinis

Parsisiųsti Siųstis galima tik prisijungus!
Aprašymas
DMCA


Kalnai kalnai


Originalus pavadinimas: Kalnai kalnai
Žanras: Dokumentinis
Metai: 2016
Scenarijaus autoriai: Marija Stonytė
Operatoriai: Gediminas Kairys
Montažo režisieriai: Marija Stonytė
Muzikos autoriai: Mindaugas Šmėga
Garso režisieriai: Kazimieras Čėjauskas, Mindaugas Šmėga
Prodiuseriai: Viktorija Astrauskaitė
Režisierius: Marija Stonytė
Vaidina: Laima Armaliene

Apie filmą:
Laima Armalienė – legendinė lietuvių keliautoja, pagarsėjusi bebaimėmis kelionėmis, vedusi turistų grupes iš Lietuvos į aukščiausius pasaulio kalnus. Šiame dokumentiniame filme sekama jos paskutinė kelionė – trijų dienų stovykla Ukmergės rajone su jaunaisiais žygeiviais. Keliautoja rengia šią kelionę norėdama pasidalyti neįkainojama gyvenimo patirtimi, kurią ji įgijo keliaudama po kalnus. Ar ji bus išgirsta jaunosios kartos? Ši kelionė tampa sunkiausiu Laimos Armalienės kalnu.

2016 “Kalnai kalnai” geriausias filmas studentų programoje festivalyje „Kino pavasaris“ 2016.

2017 m. Lietuvos kino apdovanojimuose apdovanotas kategorijoje Metų geriausias studento darbas „Sidabrinės Gervės kiaušinis“



IMDB

Įgarsinta: LT (Orginalus)

Kokybė: WEBRip 1080p
Cituoti:
Failo duomenys
Format : MPEG-4
Format profile : Base Media / Version 2
Codec ID : mp42 (mp42/mp41)
File size : 641 MiB
Duration : 32 min 5 s
Overall bit rate mode : Variable
Overall bit rate : 2 791 kb/s
Encoded date : UTC 2018-02-21 18:55:32
Tagged date : UTC 2018-02-21 18:57:24
©TIM : 00:00:00:00
©TSC : 25
©TSZ : 1

Video
ID : 1
Format : AVC
Format/Info : Advanced Video Codec
Format profile : Main@L4.1
Format settings, CABAC : Yes
Format settings, RefFrames : 3 frames
Format settings, GOP : M=4, N=25
Codec ID : avc1
Codec ID/Info : Advanced Video Coding
Duration : 32 min 5 s
Bit rate mode : Variable
Bit rate : 2 470 kb/s
Maximum bit rate : 3 000 kb/s
Width : 1 920 pixels
Height : 1 080 pixels
Display aspect ratio : 16:9
Frame rate mode : Constant
Frame rate : 25.000 FPS
Standard : PAL
Color space : YUV
Chroma subsampling : 4:2:0
Bit depth : 8 bits
Scan type : Progressive
Bits/(Pixel*Frame) : 0.048
Stream size : 567 MiB (88%)
Language : English
Encoded date : UTC 2018-02-21 18:55:33
Tagged date : UTC 2018-02-21 18:55:33
Color range : Limited

Audio
ID : 2
Format : AAC
Format/Info : Advanced Audio Codec
Format profile : LC
Codec ID : 40
Duration : 32 min 5 s
Source duration : 32 min 5 s
Bit rate mode : Variable
Bit rate : 317 kb/s
Maximum bit rate : 351 kb/s
Channel(s) : 2 channels
Channel positions : Front: L R
Sampling rate : 48.0 kHz
Frame rate : 46.875 FPS (1024 SPF)
Compression mode : Lossy
Stream size : 72.9 MiB (11%)
Source stream size : 72.9 MiB (11%)
Language : English
Encoded date : UTC 2018-02-21 18:55:33
Tagged date : UTC 2018-02-21 18:55:33


Nuorodos į šį torentą
BBCode
HTML
Tiesioginė nuoroda
Dalintis

Tagai
Nėra tagų

Dar nėra komentarų