Torentas "The Last Warrior (2018) [BDRip] Action & Adventure, Drama, Science Fiction & Fantasy" :: PiratuSala.lt

The Last Warrior Originalus pavadinimas: The Last Warrior Žanras: Action & Adventure, Drama, Science Fiction & Fantasy Metai: 2018 Režisierius: Rustam Mosafir Vaidina: Aleksey Faddeev as Lyutobor. Aleksandr Kuznetsov .... Apie filmą: These are times when one civilization is replacing another. A new era is about to begin in Central Eurasia. Scythians, the proud warriors, are all but a...

Apie mus

Perspektyvus torentų tinklalapis turintis vienintelį tikslą, suburti didelę ir darnią žmonių bendruomenę, kurie nori ir su malonumu dalinasi savo turimais failais. Tad jei nerandi sau vietos, prisijunk prie mūsų bendruomenės ir padėk mums siekti tikslo kartu.

Išsižadėjimas

Nei vienas failas, kurį matote šioje svetainėje, nėra nei talpinamas, nei laikomas svetainės serveryje. Visos nuorodos yra paskelbtos puslapio vartotojų bei lankytojų tik mokslo bei švietimo tikslais ir jokiais kitais. Puslapio administracija ar kiti atsakingi asmenys neprisiima atsakomybės už svetainės vartotojų talpinamą informaciją, įskaitant nuorodas, pasisakymus, temas ir visa kita, kiekvienas vartotojas už savo veiksmus atsako pats. Plačiau...
 

The Last Warrior (2018) [BDRip] Action & Adventure, Drama, Science Fiction & Fantasy Auksinis

Parsisiųsti Siųstis galima tik prisijungus!
Aprašymas
DMCA


The Last Warrior


Originalus pavadinimas: The Last Warrior
Žanras: Action & Adventure, Drama, Science Fiction & Fantasy
Metai: 2018

Režisierius: Rustam Mosafir
Vaidina: Aleksey Faddeev as Lyutobor. Aleksandr Kuznetsov ....

Apie filmą: These are times when one civilization is replacing another. A new era is about to begin in Central Eurasia. Scythians, the proud warriors, are all but gone. The few of their descendants have become ruthless mercenary assassins, the "waves of Ares." Lutobor, is a soldier with a difficult task at hand. He becomes involved in internecine conflicts and sets off on a perilous journey to save his family. His guide is a captive Scythian by the name of Weasel. Lutobor and Weasel are enemies. They pray to different gods but must embark on this journey together. They brave the wild steppes, moving toward the last haven of the Scythians, to what seems to be their inevitable demise.


Įgarsinta: EN (Originalus)


Kokybė: BDRip
Video: Format : MPEG-4 Visual
Format profile : Advanced Simple@L5
Format settings, BVOP : 2
Format settings, QPel : No
Format settings, GMC : No warppoints
Format settings, Matrix : Default (H.263)
Muxing mode : Packed bitstream
Codec ID : XVID
Codec ID/Hint : XviD
Duration : 1h 44mn
Bit rate : 1 505 Kbps
Width : 720 pixels
Height : 304 pixels
Display aspect ratio : 2.35:1
Frame rate : 23.976 (23976/1000) fps
Color space : YUV
Chroma subsampling : 4:2:0
Bit depth : 8 bits
Scan type : Progressive
Compression mode : Lossy
Bits/(Pixel*Frame) : 0.287
Stream size : 1.10 GiB (77%)
Writing library : XviD 66

Audio: Format : AC-3
Format/Info : Audio Coding 3
Mode extension : CM (complete main)
Format settings, Endianness : Big
Codec ID : 2000
Duration : 1h 44mn
Bit rate mode : Constant
Bit rate : 448 Kbps
Channel(s) : 6 channels
Channel positions : Front: L C R, Side: L R, LFE
Sampling rate : 48.0 KHz
Frame rate : 31.250 fps (1536 spf)
Compression mode : Lossy
Stream size : 335 MiB (23%)
Alignment : Aligned on interleaves
Interleave, duration : 42 ms (1.00 video frame)
Interleave, preload duration : 512 ms



Filmo pristatymas:

Youtube




Nuorodos į šį torentą
BBCode
HTML
Tiesioginė nuoroda
Dalintis

Tagai
Nėra tagų

Dar nėra komentarų