Torentas "Simpsonų filmas / The Simpsons Movie (2007) [720p BluRay] Animacinis, Nuotykių, Komedija" :: PiratuSala.lt

Simpsonų filmas Originalus pavadinimas: The Simpsons Movie Žanras: Animacinis, Nuotykių, Komedija Metai: 2007 Režisierius: David Silverman Vaidina: Dan Castellaneta, Julie Kavner, Nancy Cartwright, Yeardley Smith ... Apie filmą: Simpsonų šeimos galva netyčia į upę išleidžia didžiulį kiekį radioaktyvių atliekų ir po to turi sustabdyti grėsmingą ekologinę katastrofą. Įgarsinta: LT (Dubliuotas)...

Apie mus

Perspektyvus torentų tinklalapis turintis vienintelį tikslą, suburti didelę ir darnią žmonių bendruomenę, kurie nori ir su malonumu dalinasi savo turimais failais. Tad jei nerandi sau vietos, prisijunk prie mūsų bendruomenės ir padėk mums siekti tikslo kartu.

Išsižadėjimas

Nei vienas failas, kurį matote šioje svetainėje, nėra nei talpinamas, nei laikomas svetainės serveryje. Visos nuorodos yra paskelbtos puslapio vartotojų bei lankytojų tik mokslo bei švietimo tikslais ir jokiais kitais. Puslapio administracija ar kiti atsakingi asmenys neprisiima atsakomybės už svetainės vartotojų talpinamą informaciją, įskaitant nuorodas, pasisakymus, temas ir visa kita, kiekvienas vartotojas už savo veiksmus atsako pats. Plačiau...
 

Simpsonų filmas / The Simpsons Movie (2007) [720p BluRay] Animacinis, Nuotykių, Komedija

Parsisiųsti Siųstis galima tik prisijungus!
Aprašymas
DMCA


Simpsonų filmas


Originalus pavadinimas: The Simpsons Movie
Žanras: Animacinis, Nuotykių, Komedija
Metai: 2007

Režisierius: David Silverman
Vaidina: Dan Castellaneta, Julie Kavner, Nancy Cartwright, Yeardley Smith ...

Apie filmą: Simpsonų šeimos galva netyčia į upę išleidžia didžiulį kiekį radioaktyvių atliekų ir po to turi sustabdyti grėsmingą ekologinę katastrofą.

IMDB

Įgarsinta: LT (Dubliuotas) + Anglų Originalas
Subtitrai: ASS eng, swe, fin, fre, ger, ro, spa, lit
Kokybė: 720p BluRay
Video:

Format : AVC
Format settings, CABAC : Yes
Format settings, ReFrames : 10 frames
Duration : 1h 26mn
Bit rate : 2 489 Kbps
Width : 1 280 pixels
Height : 532 pixels
Display aspect ratio : 2.40:1
Frame rate : 23.976 fps
Color space : YUV

Audio #1
ID : 2
Format : DTS
Format/Info : Digital Theater Systems
Codec ID : A_DTS
Duration : 1h 26mn
Bit rate mode : Constant
Bit rate : 1 510 Kbps
Channel(s) : 6 channels
Channel positions : Front: L C R, Side: L R, LFE
Sampling rate : 48.0 KHz
Bit depth : 24 bits
Compression mode : Lossy
Stream size : 937 MiB (34%)
Title : Main audio
Language : English
Default : Yes
Forced : No

Audio #2
ID : 3
Format : AC-3
Format/Info : Audio Coding 3
Mode extension : CM (complete main)
Codec ID : A_AC3
Duration : 1h 26mn
Bit rate mode : Constant
Bit rate : 384 Kbps
Channel(s) : 6 channels
Channel positions : Front: L C R, Side: L R, LFE
Sampling rate : 48.0 KHz
Bit depth : 16 bits
Compression mode : Lossy
Delay relative to video : 1s 0ms
Stream size : 238 MiB (9%)
Title : Lietuviu prof. dubl. (DVD)
Language : Lithuanian
Default : No
Forced : No

Audio #3
ID : 4
Format : Vorbis
Format settings, Floor : 1
Codec ID : A_VORBIS
Duration : 1h 26mn
Bit rate mode : Variable
Bit rate : 64.0 Kbps
Channel(s) : 2 channels
Sampling rate : 48.0 KHz
Compression mode : Lossy
Stream size : 39.7 MiB (1%)
Title : Commentry Track 1
Writing library : libVorbis 1.1.1/1.1.2 (UTC 2005-03-04)
Language : English
Default : No
Forced : No

Audio #4
ID : 5
Format : Vorbis
Format settings, Floor : 1
Codec ID : A_VORBIS
Duration : 1h 26mn
Bit rate mode : Variable
Bit rate : 64.0 Kbps
Channel(s) : 2 channels
Sampling rate : 48.0 KHz
Compression mode : Lossy
Stream size : 39.7 MiB (1%)
Title : Commentry Track 2
Writing library : libVorbis 1.1.1/1.1.2 (UTC 2005-03-04)
Language : English
Default : No
Forced : No

Text #1
ID : 6
Format : ASS
Codec ID : S_TEXT/ASS
Codec ID/Info : Advanced Sub Station Alpha
Compression mode : Lossless
Language : English
Default : No
Forced : No

Text #2
ID : 7
Format : ASS
Codec ID : S_TEXT/ASS
Codec ID/Info : Advanced Sub Station Alpha
Compression mode : Lossless
Language : Finnish
Default : No
Forced : No

Text #3
ID : 8
Format : ASS
Codec ID : S_TEXT/ASS
Codec ID/Info : Advanced Sub Station Alpha
Compression mode : Lossless
Language : Swedish
Default : No
Forced : No

Text #4
ID : 9
Format : ASS
Codec ID : S_TEXT/ASS
Codec ID/Info : Advanced Sub Station Alpha
Compression mode : Lossless
Language : French
Default : No
Forced : No

Text #5
ID : 10
Format : ASS
Codec ID : S_TEXT/ASS
Codec ID/Info : Advanced Sub Station Alpha
Compression mode : Lossless
Language : German
Default : No
Forced : No

Text #6
ID : 11
Format : ASS
Codec ID : S_TEXT/ASS
Codec ID/Info : Advanced Sub Station Alpha
Compression mode : Lossless
Language : Romanian
Default : No
Forced : No

Text #7
ID : 12
Format : ASS
Codec ID : S_TEXT/ASS
Codec ID/Info : Advanced Sub Station Alpha
Compression mode : Lossless
Language : Spanish
Default : No
Forced : No

Text #8
ID : 13
Format : UTF-8
Codec ID : S_TEXT/UTF8
Codec ID/Info : UTF-8 Plain Text
Title : Lietuviski prof.
Language : Lithuanian
Default : Yes
Forced : Yes[/quote]



Filmo pristatymas:

Youtube




Nuorodos į šį torentą
BBCode
HTML
Tiesioginė nuoroda
Dalintis

Tagai
Nėra tagų

Dar nėra komentarų