Torentas "Kaip Grinčas Kalėdas Vogė / How the Grinch Stole Christmas (2000) [BRRip] Komedija, Šeimai, Fantastinis" :: PiratuSala.lt

Kaip Grinčas Kalėdas Vogė Originalus pavadinimas: How the Grinch Stole Christmas Žanras: Komedija, Šeimai, Fantastinis Metai: 2000 Režisierius: Ron Howard Vaidina: Jim Carrey, Taylor Momsen, Kelley, Jeffrey Tambor ... Apie filmą: Grinčas – žalias, storas, gauruotas padaras paplokščiu snukiu, plonais pirštais ir grėsmingomis geltonomis akimis. Nenuostabu, kad jis gyveno vienas, atsiskyręs nuo...

Apie mus

Perspektyvus torentų tinklalapis turintis vienintelį tikslą, suburti didelę ir darnią žmonių bendruomenę, kurie nori ir su malonumu dalinasi savo turimais failais. Tad jei nerandi sau vietos, prisijunk prie mūsų bendruomenės ir padėk mums siekti tikslo kartu.

Išsižadėjimas

Nei vienas failas, kurį matote šioje svetainėje, nėra nei talpinamas, nei laikomas svetainės serveryje. Visos nuorodos yra paskelbtos puslapio vartotojų bei lankytojų tik mokslo bei švietimo tikslais ir jokiais kitais. Puslapio administracija ar kiti atsakingi asmenys neprisiima atsakomybės už svetainės vartotojų talpinamą informaciją, įskaitant nuorodas, pasisakymus, temas ir visa kita, kiekvienas vartotojas už savo veiksmus atsako pats. Plačiau...
 

Kaip Grinčas Kalėdas Vogė / How the Grinch Stole Christmas (2000) [BRRip] Komedija, Šeimai, Fantastinis Kalėdinis

Parsisiųsti Siųstis galima tik prisijungus!
Aprašymas
DMCA


Kaip Grinčas Kalėdas Vogė


Originalus pavadinimas: How the Grinch Stole Christmas
Žanras: Komedija, Šeimai, Fantastinis
Metai: 2000

Režisierius: Ron Howard
Vaidina: Jim Carrey, Taylor Momsen, Kelley, Jeffrey Tambor ...

Apie filmą: Grinčas – žalias, storas, gauruotas padaras paplokščiu snukiu, plonais pirštais ir grėsmingomis geltonomis akimis. Nenuostabu, kad jis gyveno vienas, atsiskyręs nuo jį nuolat pašiepiančių ir jo prisibijančių miesteliūkščio gyventojų.

Kai iki šv. Kalėdų buvo likę 3 dienos, 17 valandų ir 33 minutės, Grinčas galutinai supyko ant triukšmingų kaimynų, besilinksminančių ir belaukiančių šventės bei gausybės dovanėlių... Įniršęs Grinčas nutaria pavogti visas dovanėles.

Per naktį Grinčas išsineša visas dovanas, o rytą išgirsta šventinį šurmulį. Supratęs, kad ne dovanos per Kalėdas svarbiausia, Grinčas laužo galvą, kaip jas grąžinti...

IMDB ➨ N.A.

Įgarsinta: LT (Prof., vienbalsis) + Anglų (Originalas)

Kokybė: BRRip
Video:
Format : AVC
Format/Info : Advanced Video Codec
Format profile : [email protected]
Format settings, CABAC : Yes
Format settings, ReFrames : 3 frames
Codec ID : V_MPEG4/ISO/AVC
Duration : 1h 45mn
Bit rate : 1 975 Kbps
Width : 1 024 pixels
Height : 544 pixels
Display aspect ratio : 1.85:1
Frame rate mode : Constant
Frame rate : 23.976 fps

Audio:
Format : AC-3
Format/Info : Audio Coding 3
Mode extension : CM (complete main)
Format settings, Endianness : Big
Codec ID : A_AC3
Duration : 1h 45mn
Bit rate mode : Constant
Bit rate : 384 Kbps
Channel(s) : 6 channels
Channel positions : Front: L C R, Side: L R, LFE
Sampling rate : 48.0 KHz
Bit depth : 16 bits
Compression mode : Lossy
Stream size : 289 MiB (14%)
Language : Lithuanian

Audio:
Format : AC-3
Format/Info : Audio Coding 3
Mode extension : CM (complete main)
Format settings, Endianness : Big
Codec ID : A_AC3
Duration : 1h 45mn
Bit rate mode : Constant
Bit rate : 384 Kbps
Channel(s) : 6 channels
Channel positions : Front: L C R, Side: L R, LFE
Sampling rate : 44.1 KHz
Bit depth : 16 bits
Compression mode : Lossy
Stream size : 289 MiB (14%)
Language : English


Filmo pristatymas:

Youtube




Nuorodos į šį torentą
BBCode
HTML
Tiesioginė nuoroda
Dalintis

Tagai
Nėra tagų



gerulis
KomentarasParašė 2017-11-16 20:08



Naudinga: +1

vaje vaje...ar dar per tv3 kiekvienais metais pries Kaledas neprisiziurit :lol: