Torentas "Black Widows *S02* (2017) [WEBRip] Crime, Drama, Mystery" :: PiratuSala.lt

Black Widows Žanras: Crime, Drama, Mystery Metai: 2017 Sezonas-Serija: *S02* Režisierius: Janic Heen, Carsten Myllerup, David Berron, Per Hanefjord Vaidina: Cecilia Forss, Beate Bille, Synnøve Macody Lund, Kyrre Hellum, Måns Nathanaelson, Peter Stormare, Ken Vedsegaard, Johannes Kuhnke, Alva Bengts, Katarina Ewerlöf Aprašymas: Trys draugės staiga supranta, kad jų gyvenimas su savo vyrais ir ...

Apie mus

Jaunas ir perspektyvus torentų tinklalapis turintis vienintelį tikslą, suburti didelę ir darnią žmonių bendruomenę, kurie nori ir su malonumu dalinasi savo turimais failais. Tad jei nerandi sau vietos, prisijunk prie mūsų bendruomenės ir padėk mums siekti tikslo kartu.

Išsižadėjimas

Nei vienas failas, kurį matote šioje svetainėje, nėra nei talpinamas, nei laikomas svetainės serveryje. Visos nuorodos yra paskelbtos puslapio vartotojų bei lankytojų tik mokslo bei švietimo tikslais ir jokiais kitais. Puslapio administracija ar kiti atsakingi asmenys neprisiima atsakomybės už svetainės vartotojų talpinamą informaciją, įskaitant nuorodas, pasisakymus, temas ir visa kita, kiekvienas vartotojas už savo veiksmus atsako pats. Plačiau...
 

Black Widows *S02* (2017) [WEBRip] Crime, Drama, Mystery Auksinis

Parsisiųsti Siųstis galima tik prisijungus!
Aprašymas
DMCA


Black Widows


Žanras: Crime, Drama, Mystery
Metai: 2017

Sezonas-Serija: *S02*

Režisierius: Janic Heen, Carsten Myllerup, David Berron, Per Hanefjord
Vaidina: Cecilia Forss, Beate Bille, Synnøve Macody Lund, Kyrre Hellum, Måns Nathanaelson, Peter Stormare, Ken Vedsegaard, Johannes Kuhnke, Alva Bengts, Katarina Ewerlöf

Aprašymas: Trys draugės staiga supranta, kad jų gyvenimas su savo vyrais tampa nepakeliamas ir moterys nusprendžia jų atsikratyti. Įvykiai pradeda vystytis stulbinančiu greičiu, o visas gyvenimas virsta chaosu.

IMDB

Kalba: LT (Prof., vienbalsis) + EN - (Orginalas)
Kokybė: WEBRip
Video:
Format : AVC
Format/Info : Advanced Video Codec
Format profile : Main@L3.1
Format settings, CABAC : Yes
Format settings, ReFrames : 1 frame
Codec ID : V_MPEG4/ISO/AVC
Duration : 42mn 43s
Bit rate mode : Constant
Bit rate : 3 500 Kbps
Width : 1 280 pixels
Height : 720 pixels
Display aspect ratio : 16:9
Frame rate mode : Constant
Frame rate : 25.000 fps
Color space : YUV
Chroma subsampling : 4:2:0
Bit depth : 8 bits
Scan type : Progressive
Bits/(Pixel*Frame) : 0.152
Stream size : 1.04 GiB (92%)
Default : Yes
Forced : No

Audio:
ID : 2
Format : AC-3
Format/Info : Audio Coding 3
Mode extension : CM (complete main)
Format settings, Endianness : Big
Codec ID : A_AC3
Duration : 42mn 43s
Bit rate mode : Constant
Bit rate : 192 Kbps
Channel(s) : 2 channels
Channel positions : Front: L R
Sampling rate : 48.0 KHz
Frame rate : 31.250 fps (1536 spf)
Compression mode : Lossy
Stream size : 58.7 MiB (5%)
Language : Lithuanian
Default : Yes
Forced : No

Audio:
Format : AAC
Format/Info : Advanced Audio Codec
Format profile : LC
Codec ID : A_AAC
Duration : 42mn 43s
Bit rate : 93.4 Kbps
Channel(s) : 2 channels
Channel positions : Front: L R
Sampling rate : 48.0 KHz
Frame rate : 46.875 fps (1024 spf)
Compression mode : Lossy
Stream size : 28.5 MiB (2%)
Language : Swedish
Default : No
Forced : No

Serialo pristatymas:

Youtube




Nuorodos į šį torentą
BBCode
HTML
Tiesioginė nuoroda
Dalintis

Tagai
Nėra tagų

Dar nėra komentarų