Torentas "The Gifted *S01E05* (2017) [WEB-DLRip] Action, Fantasy, Sci-Fi" :: PiratuSala.lt

The Gifted Žanras: Action, Fantasy, Sci-Fi Metai: 2017 Sezonas-Serija: *S01E05* Režisierius: Jeremiah S. Chechik, Karen Gaviola, Scott Peters, Craig Siebels, Bryan Singer, Len Wiseman Vaidina: Stephen Moyer, Amy Acker, Sean Teale, Natalie Alyn Lind, Percy Hynes White, Coby Bell, Jamie Chung, Blair Redford, Emma Dumont, Hayley Lovitt Aprašymas: Rusiškas: Сюжет строится вокруг двух обычных чьи...

Apie mus

Jaunas ir perspektyvus torentų tinklalapis turintis vienintelį tikslą, suburti didelę ir darnią žmonių bendruomenę, kurie nori ir su malonumu dalinasi savo turimais failais. Tad jei nerandi sau vietos, prisijunk prie mūsų bendruomenės ir padėk mums siekti tikslo kartu.

Išsižadėjimas

Nei vienas failas, kurį matote šioje svetainėje, nėra nei talpinamas, nei laikomas svetainės serveryje. Visos nuorodos yra paskelbtos puslapio vartotojų bei lankytojų tik mokslo bei švietimo tikslais ir jokiais kitais. Puslapio administracija ar kiti atsakingi asmenys neprisiima atsakomybės už svetainės vartotojų talpinamą informaciją, įskaitant nuorodas, pasisakymus, temas ir visa kita, kiekvienas vartotojas už savo veiksmus atsako pats. Plačiau...
 

The Gifted *S01E05* (2017) [WEB-DLRip] Action, Fantasy, Sci-Fi

Parsisiųsti Siųstis galima tik prisijungus!
Aprašymas
DMCA


The Gifted


Žanras: Action, Fantasy, Sci-Fi
Metai: 2017

Sezonas-Serija: *S01E05*

Režisierius: Jeremiah S. Chechik, Karen Gaviola, Scott Peters, Craig Siebels, Bryan Singer, Len Wiseman
Vaidina: Stephen Moyer, Amy Acker, Sean Teale, Natalie Alyn Lind, Percy Hynes White, Coby Bell, Jamie Chung, Blair Redford, Emma Dumont, Hayley Lovitt

Aprašymas: Rusiškas:
Сюжет строится вокруг двух обычных родителей, чьи дети открывают в себе сверхъестественные способности. Семья вынуждена скрываться от правительства, недружелюбно настроенного по отношению к юным мутантам, и присоединяется к подпольной организации суперлюдей.
Angliškas:
In a world where mutated humans are treated with distrust and fear, an institute for mutants battles to achieve peaceful co-existence with humanity.

IMDB

Kalba: LT (Mėgėjiškas, vienbalsis) Rusų (FOX) / Anglų
Kokybė: WEB-DLRip
Cituoti:

Format : AVI
Format/Info : Audio Video Interleave
File size : 621 MiB
Duration : 47mn 18s
Overall bit rate : 1 834 Kbps

Video
ID : 0
Format : MPEG-4 Visual
Format profile : Advanced Simple@L5
Format settings, BVOP : 1
Format settings, QPel : No
Format settings, GMC : No warppoints
Format settings, Matrix : Default (MPEG)
Codec ID : XVID
Codec ID/Hint : XviD
Duration : 47mn 18s
Bit rate : 1 358 Kbps
Width : 720 pixels
Height : 400 pixels
Display aspect ratio : 16:9
Frame rate : 23.976 (23976/1000) fps
Color space : YUV
Chroma subsampling : 4:2:0
Bit depth : 8 bits
Scan type : Progressive
Compression mode : Lossy
Bits/(Pixel*Frame) : 0.197
Stream size : 459 MiB (74%)
Writing library : XviD 73

Audio #1
ID : 1
Format : AC-3
Format/Info : Audio Coding 3
Mode extension : CM (complete main)
Format settings, Endianness : Big
Codec ID : 2000
Duration : 47mn 18s
Bit rate mode : Constant
Bit rate : 192 Kbps
Channel(s) : 2 channels
Channel positions : Front: L R
Sampling rate : 48.0 KHz
Frame rate : 31.250 fps (1536 spf)
Compression mode : Lossy
Stream size : 65.0 MiB (10%)
Alignment : Aligned on interleaves
Interleave, duration : 32 ms (0.77 video frame)

Audio #2
ID : 2
Format : MPEG Audio
Format version : Version 1
Format profile : Layer 3
Mode : Joint stereo
Mode extension : MS Stereo
Codec ID : 55
Codec ID/Hint : MP3
Duration : 47mn 18s
Bit rate mode : Constant
Bit rate : 128 Kbps
Channel(s) : 2 channels
Sampling rate : 48.0 KHz
Compression mode : Lossy
Stream size : 43.3 MiB (7%)
Alignment : Aligned on interleaves
Interleave, duration : 24 ms (0.58 video frame)

Audio #3
ID : 3
Format : MPEG Audio
Format version : Version 1
Format profile : Layer 3
Mode : Joint stereo
Mode extension : MS Stereo
Codec ID : 55
Codec ID/Hint : MP3
Duration : 47mn 18s
Bit rate mode : Constant
Bit rate : 128 Kbps
Channel(s) : 2 channels
Sampling rate : 48.0 KHz
Compression mode : Lossy
Stream size : 43.3 MiB (7%)
Alignment : Aligned on interleaves
Interleave, duration : 24 ms (0.58 video frame)
Serialo pristatymas:

Youtube




Nuorodos į šį torentą
BBCode
HTML
Tiesioginė nuoroda
Dalintis

Tagai
Nėra tagų

Dar nėra komentarų